<?xml version="1.0" standalone="no"?>
<!DOCTYPE svg PUBLIC "-//W3C//DTD SVG 1.1//EN" "http://www.w3.org/Graphics/SVG/1.1/DTD/svg11.dtd" >
<svg xmlns="http://www.w3.org/2000/svg">
<metadata>Generated by IcoMoon</metadata>
<defs>
<font id="icomoon" horiz-adv-x="1024">
<font-face units-per-em="1024" ascent="960" descent="-64" />
<missing-glyph horiz-adv-x="1024" />
<glyph unicode="&#x20;" horiz-adv-x="512" d="" />
<glyph unicode="&#xe900;" glyph-name="accounts" d="M925.030-55.467h-826.044c-49.903 0-90.453 40.585-90.453 90.487l3.072 72.533c75.349 158.652 192.119 192.393 197.035 193.792l8.346 1.143h58.999c47.684 0 86.528 38.827 86.528 86.477v28.075c-23.33 30.003-40.67 62.498-51.678 96.751l-2.202 7.066c-35.942 32.666-44.937 85.692-22.187 126.908 0.614 1.399 2.27 4.096 4.181 6.912l-0.188 33.826c-0.034 22.733-0.034 45.363 0.256 67.994 1.775 43.076 13.466 81.050 33.758 110.729 23.962 35.874 64.034 63.198 109.773 74.735 44.732 11.366 93.969 12.527 142.029 3.379 43.025-8.209 79.923-27.392 106.496-55.501 31.505-33.246 49.476-81.886 50.705-136.977 0.222-24.764 0.137-49.118 0.137-73.455l-0.085-24.951c0.939-1.314 1.621-2.492 2.287-3.703 23.791-37.922 17.51-92.45-15.343-125.321l-5.171-4.762c-12.885-40.875-30.788-75.281-53.743-104.875v-26.812c0-47.65 38.827-86.477 86.477-86.477l67.362-1.143c4.915-1.399 121.719-35.157 197.018-193.792l3.106-13.568v-58.965c-0.034-49.92-40.602-90.505-90.47-90.505zM71.475 86.818v-51.797c0-15.189 12.339-27.563 27.511-27.563h826.044c15.189 0 27.46 12.39 27.46 27.563v51.797c-56.081 113.374-133.359 146.569-150.494 152.713h-54.016c-82.415 0-149.453 67.072-149.453 149.453v49.476l7.39 8.772c22.409 26.607 39.39 58.692 50.449 95.283 1.98 12.169 12.339 21.111 17.34 25.378 14.507 14.37 17.050 36.267 7.885 50.961-4.403 6.298-11.708 16.486-10.94 31.010v29.662c0 24.149 0.051 48.299-0.171 72.414-0.853 38.997-12.766 72.772-33.502 94.652-22.050 23.347-51.593 32.973-72.585 36.932-39.134 7.526-78.831 6.605-114.79-2.543-30.857-7.799-57.481-25.617-73.079-48.947-13.756-20.224-21.623-46.865-22.989-77.278-0.256-21.453-0.256-43.759-0.188-66.099v-38.502c1.724-12.715-6.263-24.371-10.121-29.969-10.394-18.603-6.212-41.455 7.475-52.719 12.288-8.414 16.657-23.108 18.995-31.010 10.65-33.417 26.624-61.935 48.435-88.098l7.322-8.772v-50.586c0-82.415-67.055-149.453-149.47-149.453h-54.016c-17.254-6.195-94.464-39.373-150.494-152.73z" />
<glyph unicode="&#xe901;" glyph-name="cash-management" d="M741.035 173.602c-59.614 0-116.207 18.91-164.045 54.75-59.75-24.593-150.255-39.202-244.258-39.202-161.109 0-324.198 42.257-324.198 122.931v114.483c0 38.707 36.574 70.929 105.728 93.184l6.707 1.997v54.767c0 38.673 36.574 70.912 105.728 93.218l20.463 5.99c25.89 7.031 55.211 12.681 87.398 16.845l20.395 2.219c26.197 2.679 53.111 4.181 80.077 4.403h20.258c27.665-0.205 55.706-1.809 83.49-4.727l20.224-2.287c13.824-1.775 28.279-4.164 44.203-7.322 42.035 24.593 89.6 37.564 137.865 37.564 151.279 0 274.432-123.068 274.432-274.347-0.034-151.313-123.187-274.466-274.466-274.466zM741.035 681.25c-128.597 0-233.216-104.619-233.216-233.199 0-128.649 104.619-233.267 233.216-233.267 128.58 0 233.233 104.636 233.233 233.267 0 128.563-104.653 233.199-233.233 233.199zM52.941 360.977v-48.896c0-26.658 98.765-78.541 279.791-78.541 78.421 0 152.474 10.394 206.865 28.689-16.128 17.51-29.867 36.881-40.96 57.89-50.108-10.564-108.578-16.384-165.905-16.384-92.382 0-214.665 15.326-279.791 57.242zM121.003 474.59c-46.916-16.538-68.062-36.045-68.062-48.026 0-25.873 93.201-75.503 264.533-78.285-109.602 16.401-196.471 54.818-196.471 113.732v12.578zM165.376 510.908v-48.913c0-26.658 98.765-78.507 279.808-78.507 9.899 0 19.558 0.205 29.047 0.563-5.069 21.009-7.629 42.445-7.629 63.966 0 2.048 0.034 4.062 0.119 6.042-7.168-0.205-14.387-0.358-21.538-0.358-92.399 0-214.682 15.309-279.808 57.207zM435.2 654.78c-26.573-0.188-52.685-1.621-77.636-4.215l-19.951-2.441c-30.857-4.147-59.034-9.865-83.627-17.015l-19.849-6.349c-47.394-16.589-68.727-36.215-68.693-48.23 0-26.658 98.765-78.455 279.808-78.455 8.994 0 17.783 0.171 26.436 0.427 10.752 57.566 39.373 109.551 82.039 149.436l-17.732 2.253c-25.378 2.799-52.617 4.369-80.759 4.557h-20.036z" />
<glyph unicode="&#xe902;" glyph-name="close" d="M192.068-55.484l-183.535 183.535 320 319.966-320 319.966 183.535 183.501 319.932-319.966 320 319.966 183.467-183.501-319.932-319.966 319.863-319.881-183.467-183.467-319.932 319.846-319.932-320z" />
<glyph unicode="&#xe903;" glyph-name="dashboard" d="M835.652 627.797c-4.045 0-7.799-0.905-11.81-1.161 13.022-22.733 23.177-47.241 31.13-72.704 50.33-9.114 88.542-52.975 88.542-105.933s-38.195-96.802-88.542-105.95c-7.953-25.446-18.125-49.937-31.13-72.67 4.011-0.29 7.765-1.195 11.81-1.195 99.294 0 179.814 80.538 179.814 179.814 0 99.294-80.521 179.797-179.814 179.797zM80.452 448c0 52.975 38.229 96.819 88.576 105.933 7.936 25.463 18.091 49.971 31.13 72.704-3.994 0.273-7.782 1.161-11.827 1.161-99.294 0-179.797-80.503-179.797-179.797 0-99.277 80.503-179.814 179.814-179.814 4.045 0 7.834 0.922 11.827 1.195-13.039 22.733-23.194 47.223-31.13 72.67-50.347 9.148-88.593 52.992-88.593 105.95zM512 771.652c-178.756 0-323.652-144.896-323.652-323.652 0-80.811 29.833-154.556 78.78-211.268 8.499-9.796 17.63-19.046 27.221-27.785 57.515-52.361 133.717-84.599 217.651-84.599 83.951 0 160.137 32.239 217.634 84.599 9.626 8.738 18.722 17.988 27.238 27.785 48.947 56.713 78.78 130.458 78.78 211.268 0 178.756-144.862 323.652-323.652 323.652zM512 196.267c-70.724 0-134.639 29.44-180.395 76.544 29.269 35.516 68.932 61.918 114.108 75.315 10.889-25.839 36.454-43.981 66.287-43.981 29.798 0 55.433 18.142 66.304 43.981 45.175-13.397 84.821-39.799 114.091-75.315-45.756-47.104-109.653-76.544-180.395-76.544zM476.041 376.081c0 5.82 1.707 11.145 4.215 16.026 5.956 11.657 17.749 19.917 31.744 19.917s25.805-8.26 31.744-19.917c2.492-4.881 4.215-10.172 4.215-16.026 0-7.526-2.85-14.148-6.861-19.883-6.451-9.472-16.794-16.077-29.099-16.077s-22.647 6.622-29.15 16.077c-3.942 5.734-6.81 12.356-6.81 19.883zM715.674 300.629c-34.56 39.902-80.657 69.257-132.932 83.575-2.953 25.293-18.398 46.66-40.602 56.969l-30.14 150.682-30.14-150.665c-22.221-10.308-37.632-31.659-40.585-56.969-52.258-14.302-98.372-43.691-132.932-83.575-26.761 36.881-43.11 81.357-46.626 129.382h34.509v35.959h-35.055c3.959 55.859 26.163 106.701 60.809 146.62l33.451-33.485 25.446 25.429-33.485 33.468c39.936 34.628 90.743 56.815 146.62 60.791v-35.055h35.977v35.055c55.825-3.977 106.667-26.163 146.603-60.791l-33.485-33.468 25.412-25.429 33.485 33.485c34.645-39.936 56.832-90.743 60.791-146.62h-35.055v-35.959h34.509c-3.482-48.043-19.849-92.518-46.575-129.399z" />
<glyph unicode="&#xe904;" glyph-name="datepicker" d="M296.226 735.693c39.68 0 71.936 32.154 71.936 71.936v71.902c0 39.782-32.256 71.936-71.936 71.936s-71.953-32.154-71.953-71.936v-71.902c0.051-39.782 32.29-71.936 71.953-71.936zM727.808 735.693c39.765 0 71.868 32.205 71.868 71.936v71.902c0 39.782-32.102 71.936-71.868 71.936-39.782 0-71.987-32.154-71.987-71.936v-71.902c0-39.782 32.188-71.936 71.987-71.936zM835.669 807.612c0-59.443-48.384-107.895-107.913-107.895-59.443 0-107.878 48.452-107.878 107.895h-215.757c0-59.443-48.418-107.895-107.895-107.895-59.511 0-107.895 48.452-107.895 107.895h-179.78v-863.078h1006.916v863.078h-179.797zM943.531 16.469h-863.095v575.369h863.095v-575.369zM224.324 483.942h143.838v-143.804h-143.838v143.804zM440.047 483.942h143.838v-143.804h-143.838v143.804zM655.872 483.942h143.804v-143.804h-143.804v143.804zM224.324 268.203h143.838v-143.821h-143.838v143.821zM440.047 268.203h143.838v-143.821h-143.838v143.821zM655.872 268.203h143.804v-143.821h-143.804v143.821z" />
<glyph unicode="&#xe905;" glyph-name="eipp-services" d="M996.301 582.195c-1.399 8.704-11.827 16.094-20.378 15.497-33.929-2.338-67.891-4.642-101.837-6.946-5.478 13.892-11.281 27.648-17.408 41.267 27.631 23.603 55.279 47.206 82.91 70.81 8.806 7.561 7.509 22.084 0 29.867-27.597 28.416-55.194 56.883-82.807 85.316-8.636 8.909-21.026 7.151-29.833 0-25.668-20.719-51.302-41.455-76.937-62.191-18.995 14.643-39.117 27.563-60.399 38.639 12.288 27.819 24.542 55.62 36.83 83.456 5.734 13.124 1.195 25.958-12.646 31.027-37.171 13.653-74.428 27.307-111.599 40.926-8.277 3.038-20.087-1.758-23.842-9.694-16.009-33.741-31.949-67.482-47.906-101.205-12.066 0.614-24.115 0.631-36.164 0.034-15.906 33.775-31.829 67.55-47.718 101.325-3.755 7.97-15.616 12.715-23.842 9.694-37.239-13.568-74.462-27.153-111.701-40.738-13.841-5.035-18.364-17.903-12.629-30.993 12.186-27.836 24.405-55.671 36.608-83.507-21.299-11.025-41.421-23.876-60.433-38.485-25.6 20.77-51.234 41.557-76.817 62.362-8.841 7.134-21.214 8.858-29.867 0-27.648-28.416-55.296-56.815-82.927-85.197-7.561-7.782-8.823-22.289 0-29.85 27.58-23.637 55.142-47.275 82.722-70.912-6.144-13.619-11.964-27.375-17.476-41.25-33.98 2.372-67.942 4.762-101.922 7.151-8.567 0.597-18.961-6.81-20.361-15.514-6.349-39.117-12.663-78.217-19.012-117.367-2.304-14.404 5.734-25.276 20.361-26.726 30.464-2.953 60.928-5.922 91.392-8.892 0.529-19.115 2.372-38.144 5.495-57.003-26.044-9.353-52.087-18.671-78.131-28.023-10.974-3.925-17.801-14.234-14.746-25.941 9.933-38.366 19.917-76.749 29.85-115.063 2.782-10.735 15.172-18.33 25.958-14.746 32.597 10.684 65.195 21.385 97.775 32.085 12.322-18.193 25.651-35.669 40.602-51.814 18.517-20.087 48.299 9.916 29.85 29.815-16.521 17.869-31.113 36.83-43.844 57.6-4.779 7.782-14.763 12.698-23.842 9.745-30.43-9.984-60.894-20.002-91.341-30.003-6.468 24.917-12.937 49.835-19.388 74.718 25.6 9.182 51.2 18.381 76.8 27.529 11.332 4.062 17.254 14.063 14.746 25.941-5.922 27.87-8.294 55.842-7.765 84.292 0.239 12.322-9.83 20.019-21.111 21.094-29.338 2.867-58.675 5.717-88.030 8.567 4.113 25.429 8.243 50.842 12.356 76.288 32.683-2.287 65.365-4.574 98.048-6.895 9.847-0.683 17.254 7.066 20.361 15.514 7.953 21.76 17.408 43.008 27.153 64.051 3.806 8.175 4.318 19.063-3.277 25.583-25.856 22.153-51.695 44.339-77.534 66.492 17.971 18.466 35.942 36.915 53.914 55.381 24.951-20.258 49.92-40.499 74.871-60.757 9.523-7.765 20.309-7.987 29.85 0 25.31 21.282 53.623 38.4 83.644 52.156 11.298 5.171 11.81 19.2 7.578 28.877-11.861 27.085-23.774 54.187-35.652 81.289 24.218 8.841 48.435 17.681 72.653 26.505 15.172-32.205 30.362-64.41 45.517-96.597 2.884-6.178 11.469-11.025 18.193-10.462 21.709 1.792 40.533 1.775 62.208-0.068 6.758-0.546 15.326 4.318 18.227 10.479 15.223 32.137 30.43 64.324 45.636 96.495 24.235-8.892 48.435-17.766 72.636-26.641-11.947-27.085-23.876-54.187-35.84-81.254-4.318-9.694-3.721-23.706 7.561-28.894 29.986-13.824 58.231-30.993 83.49-52.309 9.591-8.038 20.343-7.714 29.918 0 24.969 20.19 49.954 40.397 74.923 60.604 17.971-18.483 35.908-36.983 53.862-55.484-25.941-22.118-51.849-44.237-77.773-66.372-7.595-6.537-7.049-17.425-3.243-25.6 9.745-21.043 19.098-42.325 27.051-64.119 3.038-8.431 10.513-16.162 20.326-15.514 32.7 2.236 65.348 4.489 97.997 6.707 4.062-25.429 8.158-50.859 12.237-76.288-29.389-2.799-58.743-5.598-88.132-8.414-11.281-1.058-21.282-8.789-21.111-21.111 0.512-28.416-1.911-56.405-7.851-84.224-2.56-11.913 3.413-21.879 14.694-25.941 25.549-9.25 51.115-18.466 76.681-27.665-6.519-24.917-13.039-49.818-19.558-74.735-30.43 10.069-60.843 20.139-91.307 30.191-9.114 2.987-19.012-1.963-23.842-9.745-12.817-20.685-27.426-39.646-43.93-57.498-18.534-19.917 11.281-49.835 29.867-29.833 14.985 16.077 28.331 33.553 40.67 51.712 32.597-10.769 65.195-21.555 97.775-32.324 10.82-3.55 23.159 4.011 25.941 14.729 10.086 38.332 20.087 76.698 30.089 115.029 3.089 11.827-3.806 22.050-14.694 25.941-26.010 9.421-52.053 18.807-78.063 28.16 3.157 18.859 5.052 37.905 5.598 57.003 30.498 2.901 60.979 5.82 91.426 8.721 14.694 1.399 22.647 12.322 20.343 26.726-6.195 39.151-12.476 78.268-18.722 117.419zM805.103 517.239c-8.977 58.761-37.222 115.217-78.558 157.952-82.807 85.641-219.477 104.516-327.987 62.635-78.131-30.106-134.451-91.682-159.915-171.196-28.331-88.422-24.098-189.303 24.525-269.636 14.063-23.33 50.569-2.099 36.454 21.282-32.649 53.999-41.899 116.685-33.246 178.739 8.841 63.386 32.973 122.112 82.381 164.25 85.146 72.55 221.577 72.772 312.986 13.090 45.466-29.679 76.271-76.8 93.201-127.642 25.719-77.466 3.806-159.863-35.635-228.42-13.602-23.637 22.938-44.919 36.489-21.282 38.229 66.475 60.996 143.241 49.306 220.228zM479.778 296.653c40.38-14.865 82.859 4.881 109.431 35.652 33.775 38.98 46.916 92.672 47.326 143.172 0 0.119 0.068 0.188 0.068 0.307-0.478 61.321-20.224 127.147-71.066 165.257-44.612 33.417-102.093 17.971-136.465-21.777-43.281-49.988-53.060-122.317-43.93-185.651 8.107-56.030 38.793-116.446 94.635-136.96zM451.499 596.873c15.275 18.551 36.045 31.642 60.57 31.164 23.876-0.444 44.851-17.545 58.487-35.789 24.832-33.109 34.048-75.793 34.406-116.48-0.427-52.821-18.586-127.932-74.786-148.617-54.682-20.087-93.764 39.407-107.452 83.61-18.466 59.614-12.015 136.636 28.774 186.112zM731.767 245.248c-14.78 13.38-29.508 26.795-44.271 40.141-15.906 14.438-31.863 28.877-47.77 43.315-4.096 3.721-10.94 4.403-14.95 0-38.656-42.53-77.346-85.009-116.053-127.539-38.468 42.428-76.954 84.821-115.439 127.283-3.908 4.267-10.957 3.857-14.933 0-22.562-21.879-45.124-43.742-67.703-65.69-10.837-10.496-21.641-21.009-32.478-31.488-5.205-5.052-5.188-10.138-5.188-16.794v-258.799c0-5.769 4.796-10.598 10.564-10.598h454.042c2.833 0 4.915 1.058 6.571 2.492 0.324 0.222 0.614 0.41 0.905 0.666 0.154 0.171 0.273 0.358 0.393 0.546 1.57 1.673 2.679 3.874 2.679 6.827v269.602c0 8.38-10.854 15.036-16.367 20.036zM627.985 300.851c7.1-18.944 11.315-39.646 15.77-59.051 2.56-11.435 5.018-23.040 6.485-34.662-26.266 9.626-58.897 3.738-85.367-1.314-9.796-1.843-19.593-4.028-29.321-6.554 30.805 33.86 61.611 67.721 92.433 101.581zM376.013 239.019c4.267 19.627 8.567 40.602 15.582 59.887 30.259-33.348 60.518-66.714 90.778-100.079-8.806 2.389-17.698 4.506-26.59 6.4-27.255 5.82-58.487 10.718-85.641 1.911 1.246 10.718 3.584 21.35 5.871 31.881zM727.040-33.809h-213.265c1.092 2.714 18.091 150.34 26.163 187.409 0.273 1.28-0.922-0.853-2.321-1.451-10.103-3.772-30.362-11.025-30.362-11.025s-22.477 8.892-28.86 11.281c-0.512 0.512-1.246 0.563-1.946 0.222-0.154-0.051-0.393-0.375-0.614-0.649 7.526-40.892 22.426-183.108 23.467-185.788h-205.227v251.051c23.91 23.194 47.821 46.404 71.748 69.598-3.908-14.012-7.083-28.297-10.172-42.24-2.97-13.329-5.581-26.829-7.049-40.431-0.819-7.39-1.451-18.142 6.366-22.221 4.983-2.645 9.506-1.314 13.875 1.638 5.854 3.755 13.312 5.376 20.156 6.178 16.418 2.014 33.417 0.051 49.613-2.731 21.265-3.635 42.513-9.097 62.857-16.265 2.526-0.939 5.615-0.393 8.038 0.99 3.26-0.563 6.69-0.256 11.298 1.178 12.595 3.977 25.463 7.27 38.349 10.138 29.303 6.622 67.123 14.694 94.686-1.041 10.94-6.229 18.039 5.103 18.33 14.575 0.375 12.356-2.867 25.276-5.274 37.308-3.43 17.374-7.27 35.294-12.288 52.77 24.149-21.879 48.299-43.759 72.414-65.638v-254.857zM475.494 151.194c0.017 0.188 0.034 0.307 0.102 0.478 0.034 0.085 0.171 0.171 0.273 0.29-0.171 0.905-0.358 2.031-0.512 2.833-0.051 0.256 0.085-3.84 0.137-3.601z" />
<glyph unicode="&#xe906;" glyph-name="favorites" d="M512 951.467l165.939-316.433 337.493-68.198-234.94-263.714 42.633-358.588-311.125 153.498-311.125-153.498 42.633 358.588-234.94 263.731 337.493 68.198 165.939 316.416z" />
<glyph unicode="&#xe907;" glyph-name="initiate-payment" d="M512 950.886c-277.009 0-503.467-225.28-503.467-502.306s225.28-503.484 503.467-503.484c276.975 0 503.467 225.365 503.467 503.484 0 277.026-225.297 502.306-503.467 502.306zM512-20.361c-258.645 0-468.975 210.33-468.975 468.958s210.33 467.814 468.975 467.814c258.594 0 468.975-210.347 468.975-468.958s-210.381-467.814-468.975-467.814zM512 857.805c-225.314 0-409.207-183.91-409.207-409.207s183.893-409.19 409.207-409.19c9.182 0 17.22 8.073 17.22 17.203 0 9.267-8.038 17.271-17.22 17.271-206.916-1.143-374.716 167.851-374.716 374.716 0 206.899 167.799 374.716 374.716 374.716 206.899 0 375.859-168.977 375.859-374.733 0-31.027-3.482-60.894-11.486-90.795-2.304-9.199 3.447-18.398 12.629-20.668 9.182-2.338 18.364 3.396 20.702 12.629 8.038 32.171 12.578 65.502 12.578 98.833 0.017 225.297-183.825 409.225-410.283 409.225zM795.938 202.598c-18.449-21.794-40.243-41.335-63.266-58.607-8.038-5.769-9.182-16.094-3.482-24.132 3.482-4.608 9.267-6.895 13.858-6.895 3.447 0 6.878 1.161 10.325 3.396 25.293 18.466 48.247 40.26 68.966 63.266 5.734 6.895 5.734 18.364-2.304 24.166-6.912 6.878-18.398 5.734-24.098-1.195zM713.148 631.569c0 14.029-12.288 26.334-26.317 26.334h-316.314c-14.080 0-26.351-12.305-26.351-26.334 0-14.080 12.288-26.351 26.351-26.351h101.905c54.477 0 79.087-14.080 91.375-35.14h-193.28c-14.080 0-26.351-12.305-26.351-26.385 0-14.029 12.288-26.368 26.351-26.368h202.069c-1.741-36.864-17.527-70.281-100.164-70.281h-101.905c-10.547 0-21.094-7.014-24.61-15.821-3.482-10.496-1.741-21.060 5.291-28.092l210.859-210.842c5.325-5.308 12.288-7.031 19.302-7.031s14.063 1.741 19.354 7.031c10.53 10.496 10.53 26.334 0 36.864l-165.171 165.205h36.881c126.532 0 151.108 73.779 152.9 122.965h61.508c14.029 0 26.317 12.339 26.317 26.368 0 14.080-12.288 26.385-26.317 26.385h-66.833c-3.482 12.305-8.772 24.593-17.562 35.14h84.395c14.029 0 26.317 12.288 26.317 26.351z" />
<glyph unicode="&#xe908;" glyph-name="instrument-management" d="M931.55 783.65h-20.975v104.875c0 34.697-28.228 62.942-62.942 62.942h-83.9c-34.697 0-62.942-28.228-62.942-62.942v-104.892h-83.917v104.892c0 34.697-28.211 62.942-62.942 62.942h-83.9c-34.679 0-62.942-28.228-62.942-62.942v-104.892h-83.917v104.892c0 34.697-28.245 62.942-62.942 62.942h-83.9c-34.679 0-62.908-28.228-62.908-62.942v-104.892h-20.975c-34.679 0-62.942-28.228-62.942-62.942v-83.917c0-34.697 28.245-62.942 62.942-62.942h20.975v-566.409c0-34.697 28.211-62.942 62.942-62.942h83.9c34.679 0 62.942 28.228 62.942 62.942v566.443h83.917v-398.575c0-34.697 28.245-62.942 62.942-62.942h83.9c34.714 0 62.942 28.228 62.942 62.942v398.575h83.917v-230.758c0-34.714 28.228-62.942 62.942-62.942h83.917c34.697 0 62.942 28.211 62.942 62.942v230.758h20.975c34.714 0 62.942 28.228 62.942 62.942v83.917c-0.051 34.697-28.279 62.925-62.993 62.925zM113.425 615.817h-20.975c-11.537 0-20.975 9.438-20.975 20.975v83.917c0 11.537 9.455 20.975 20.975 20.975h20.975v-125.867zM281.242 7.475c0-11.554-9.455-20.975-20.975-20.975h-83.9c-11.537 0-20.975 9.438-20.975 20.975v881.050c0 11.537 9.455 20.975 20.975 20.975h83.9c11.537 0 20.975-9.438 20.975-20.975v-881.050zM407.108 615.817h-83.917v125.867h83.917v-125.867zM574.942 175.292c0-11.554-9.421-20.975-20.975-20.975h-83.9c-11.537 0-20.975 9.421-20.975 20.975v713.233c0 11.537 9.455 20.975 20.975 20.975h83.9c11.571 0 20.975-9.438 20.975-20.975v-713.233zM700.791 615.817h-83.917v125.867h83.917v-125.867zM868.625 343.108c0-11.571-9.421-20.975-20.975-20.975h-83.917c-11.554 0-20.975 9.421-20.975 20.975v545.417c0 11.537 9.438 20.975 20.975 20.975h83.917c11.554 0 20.975-9.438 20.975-20.975v-545.417zM952.525 636.791c0-11.537-9.421-20.975-20.975-20.975h-20.975v125.867h20.975c11.571 0 20.975-9.455 20.975-20.975v-83.917zM203.213 693.487c-3.789-3.806-5.888-9.267-5.888-14.729s2.048-10.906 6.246-14.694c3.84-4.198 9.284-6.298 14.729-6.298s10.906 2.099 14.677 6.332c4.198 3.789 6.298 9.25 6.298 14.694s-2.048 10.871-6.298 15.121c-7.902 7.509-21.367 7.919-29.764-0.427zM496.879 693.487c-3.772-3.806-5.854-9.267-5.854-14.729s2.065-10.854 6.229-15.053c4.25-3.84 9.284-5.922 14.729-5.922s10.496 2.099 15.070 6.332c3.823 3.789 5.922 9.25 5.922 14.694s-2.048 10.871-6.281 15.121c-7.936 7.492-20.975 7.902-29.815-0.444zM790.562 693.487c-3.772-3.806-5.854-9.267-5.854-14.729s2.048-10.854 6.212-15.053c4.267-3.84 9.301-5.922 14.746-5.922s10.906 2.099 14.66 6.332c4.233 3.789 6.315 9.25 6.315 14.694s-2.048 10.871-6.315 15.121c-7.885 7.492-20.941 7.902-29.764-0.444z" />
<glyph unicode="&#xe909;" glyph-name="logout" d="M8.533 810.155v-724.309h503.859v115.473h-388.386v493.346h388.386v115.49zM617.37 589.705h-388.403v-283.426h388.403v-219.921l398.097 360.755-398.097 360.755z" />
<glyph unicode="&#xe90a;" glyph-name="manage-categories" d="M826.675-23.996c17.374 0 31.454 14.080 31.454 31.454v912.538c0 17.374-14.080 31.471-31.454 31.471h-629.35c-17.374 0-31.454-14.097-31.454-31.471v-912.538c0-17.374 14.080-31.454 31.454-31.454h31.471v-15.753c0-8.67 7.049-15.718 15.735-15.718h31.471c8.687 0 15.718 7.049 15.718 15.718v15.753h440.542v-15.753c0-8.67 7.049-15.718 15.753-15.718h31.471c8.653 0 15.753 7.049 15.753 15.718v15.753h31.437zM464.794 101.854c-8.687 0-15.735 7.049-15.735 15.718 0 8.704 7.066 15.753 15.735 15.753h94.413c8.721 0 15.718-7.049 15.718-15.753 0-8.67-6.997-15.718-15.718-15.718h-94.413zM464.794 416.529c-8.687 0-15.735 7.049-15.735 15.701 0 8.687 7.066 15.753 15.735 15.753h94.413c8.721 0 15.718-7.066 15.718-15.753 0-8.653-6.997-15.701-15.718-15.701h-94.413zM197.325 322.133v283.204h629.367v-283.204h-629.367zM826.675 290.662v-283.221h-629.35v283.221h629.35zM464.794 731.204c-8.687 0-15.735 7.066-15.735 15.718 0 8.687 7.066 15.753 15.735 15.753h94.413c8.721 0 15.718-7.066 15.718-15.753 0-8.67-6.997-15.718-15.718-15.718h-94.413zM197.325 636.791v283.204h629.367v-283.204h-629.367z" />
<glyph unicode="&#xe90b;" glyph-name="menu" d="M8.533 817.22v-134.263h1006.933v134.263h-1006.933zM8.533 380.86h1006.933v134.263h-1006.933v-134.263zM8.533 78.78h1006.933v134.263h-1006.933v-134.263z" />
<glyph unicode="&#xe90c;" glyph-name="minus" d="M8.533 951.467v-1006.933h1006.933v1006.933h-1006.933zM969.694-9.694h-915.388v915.388h915.405v-915.388zM740.847 493.773h-457.694v-91.529h457.694v91.529z" />
<glyph unicode="&#xe90d;" glyph-name="myaccounts" d="M927.693 534.733c-39.151 0-72.994-26.453-83.558-62.413h-78.302c-4.233 48.64-23.245 94.123-52.89 132.215l57.105 57.105c32.819-14.814 71.987-9.506 98.406 18.005 33.826 33.809 33.826 89.89 0 123.716-33.843 33.86-89.924 33.86-123.767 0-26.453-26.419-32.785-66.611-17.971-98.355l-57.105-57.105c-37.035 28.535-80.418 46.541-126.925 52.873v80.401c33.792 12.698 57.088 44.407 57.088 82.483 0.034 48.657-39.117 87.808-87.774 87.808s-87.791-39.151-87.791-87.808c0-38.076 24.32-69.786 57.105-82.483v-80.401c-46.541-5.291-89.907-23.262-126.925-52.873l-57.105 57.105c5.308 11.639 8.465 23.245 8.465 37.052 0 48.623-39.134 87.757-87.791 87.757s-87.808-39.134-87.808-87.757c0-48.708 39.151-87.808 87.808-87.808 12.681 0 25.378 3.157 37.001 8.465l57.105-57.105c-28.553-37.052-46.524-80.401-52.873-126.942h-80.367c-12.698 33.86-44.442 57.122-82.517 57.122-48.657 0-87.791-39.151-87.791-87.808 0-48.674 39.134-87.774 87.791-87.774 38.076 0 69.82 24.337 82.517 57.105h80.367c5.308-46.524 23.279-89.907 52.873-126.942l-57.105-57.105c-11.622 5.291-23.279 8.448-37.001 8.448-48.657 0-87.808-39.117-87.808-87.774s39.151-87.825 87.808-87.825 87.791 39.168 87.791 87.825c0 12.646-3.157 25.344-8.465 37.001l57.105 57.139c37.018-28.57 80.384-46.575 126.925-52.924v-80.384c-33.843-12.698-57.105-44.442-57.105-82.483 0-48.657 39.134-87.774 87.791-87.774s87.808 39.117 87.808 87.774c0 38.042-24.337 69.786-57.088 82.483v80.384c46.507 5.325 89.89 23.296 126.925 52.924l57.105-57.139c-5.291-11.657-8.482-23.279-8.482-37.001 0-48.657 39.151-87.825 87.774-87.825 48.691 0 87.842 39.168 87.842 87.825s-39.168 87.774-87.842 87.774c-12.663 0-25.361-3.174-36.966-8.448l-57.139 57.105c27.511 34.935 45.483 77.21 51.814 121.634h83.558c13.756-30.669 44.459-51.797 80.418-51.797 48.657 0 87.774 39.1 87.774 87.774-1.092 47.616-40.209 86.75-87.808 86.75zM650.564 298.803c-37.052 22.289-72.994 40.209-72.994 40.209-6.332 3.174-9.54 12.698-11.657 23.279-1.007 3.174-1.007 6.366-1.007 9.506 41.216 35.977 32.785 114.261 32.785 114.261-4.267 87.791-77.244 86.733-84.634 86.733-7.407 0-80.384 1.058-84.599-86.733 0 0-8.465-78.268 32.785-114.261 0-3.14-1.075-6.332-1.075-9.506-2.116-11.605-6.332-20.122-11.622-23.279 0 0-37.018-17.937-72.977-40.209-39.134 37.086-64.512 89.924-64.512 148.122 0 112.128 90.948 203.076 203.076 203.076 112.077 0 203.093-90.948 203.093-203.076-2.15-58.214-27.511-111.036-66.662-148.122z" />
<glyph unicode="&#xe90e;" glyph-name="pay-your-bills" d="M993.673 529.271l-158.020 67.721v210.637c0 39.714-32.222 71.936-71.902 71.936h-503.484c-39.714 0-71.919-32.222-71.919-71.936v-210.637l-158.020-67.721c-13.244-5.666-21.794-18.688-21.794-33.075v-407.825c0-39.714 32.205-71.936 71.919-71.936h863.113c39.68 0 71.902 32.222 71.902 71.936v407.825c0 14.387-8.55 27.409-21.794 33.075zM835.652 557.875l140.698-60.331-140.698-80.367v140.698zM224.29 807.629c0 19.831 16.145 35.977 35.977 35.977h503.484c19.849 0 35.925-16.145 35.925-35.977v-411.017l-287.676-164.403-287.71 164.403v411.017zM188.348 557.875v-140.698l-140.698 80.367 140.698 60.331zM979.507 88.371c0-19.831-16.094-35.959-35.925-35.959h-863.13c-19.831 0-35.959 16.128-35.959 35.959v369.579l449.69-256.939c5.513-3.157 11.691-4.762 17.835-4.762s12.322 1.621 17.835 4.762l449.673 256.939v-369.579zM546.492 405.043c4.625 0 9.267 1.143 12.663 4.608 6.895 6.878 6.895 17.237 0 24.183l-108.169 108.169h24.183c82.842 0 98.97 48.316 100.13 80.538h40.26c9.25 0 17.254 8.055 17.254 17.289 0 9.199-8.004 17.237-17.254 17.237h-43.725c-2.304 8.038-5.786 16.128-11.537 23.040h55.245c9.25 0 17.254 8.038 17.254 17.237 0 9.25-8.004 17.289-17.254 17.289h-207.121c-9.216 0-17.254-8.038-17.254-17.289 0-9.199 8.055-17.237 17.254-17.237h66.748c35.669 0 51.797-9.25 59.836-23.040h-126.583c-9.216 0-17.254-8.055-17.254-17.237 0-9.233 8.055-17.289 17.254-17.289h132.352c-1.143-24.183-11.503-46.063-65.604-46.063h-66.748c-6.895 0-13.807-4.557-16.111-10.342-2.304-6.861-1.143-13.807 3.447-18.398l138.103-138.086c3.465-3.447 8.073-4.608 12.629-4.608z" />
<glyph unicode="&#xe90f;" glyph-name="plus" d="M8.533 951.467v-1006.933h1006.933v1006.933h-1006.933zM969.694-9.694h-915.388v915.388h915.405v-915.388zM466.227 219.153h91.529v183.074h183.091v91.529h-183.074v183.091h-91.529v-183.091h-183.091v-91.529h183.091v-183.074z" />
<glyph unicode="&#xe910;" glyph-name="search" d="M434.21 100.574c-235.366 0-425.677 191.539-425.677 425.677s191.556 425.677 425.677 425.677c234.138 0 425.677-191.556 425.677-425.677s-190.293-425.677-425.677-425.677zM434.21 856.781c-181.538 0-329.284-148.992-329.284-330.53 0-181.572 147.746-329.301 329.284-329.301 181.555 0 330.547 147.729 330.547 329.301 0.017 181.538-148.992 330.53-330.547 330.53zM968.823-55.927c-12.493 0-25.020 4.983-33.775 13.756l-267.947 267.947c-18.773 18.773-18.773 48.811 0 67.601 18.773 18.773 48.828 18.773 67.601 0l266.667-266.667c18.807-18.807 18.807-48.828 0-67.618-7.492-10.035-20.019-15.019-32.546-15.019z" />
<glyph unicode="&#xe911;" glyph-name="settings" d="M1012.275 501.18c-1.587 13.5-18.074 23.586-32.358 23.586-46.131 0-87.108 25.771-104.226 65.638-17.527 40.823-6.263 88.457 28.143 118.46 10.786 9.404 12.117 25.173 3.072 36.113-23.637 28.535-50.483 54.289-79.77 76.612-11.486 8.772-28.314 7.561-38.263-2.935-30.037-31.607-83.951-43.383-125.594-26.829-43.332 17.34-70.673 59.136-67.994 103.987 0.887 14.080-9.95 26.334-24.661 27.972-37.615 4.147-75.571 4.284-113.289 0.307-14.575-1.519-25.412-13.5-24.917-27.392 1.621-44.442-26.044-85.487-68.932-102.229-41.165-15.974-94.686-4.335-124.621 27.017-9.95 10.308-26.487 11.605-38.007 3.055-30.191-22.545-57.617-48.35-81.459-76.629-9.301-11.008-7.919-26.931 3.004-36.42 35.004-30.191 46.336-78.217 28.109-119.518-17.34-39.373-60.314-64.751-109.517-64.751-16.009 0.495-27.375-9.694-29.099-23.484-4.42-35.994-4.471-72.67-0.239-108.902 1.621-13.551 18.603-23.603 33.041-23.603 43.861 1.041 85.914-24.764 103.595-65.638 17.579-40.823 6.315-88.439-28.16-118.46-10.786-9.353-12.117-25.105-3.055-36.028 23.398-28.365 50.227-54.17 79.667-76.715 11.52-8.823 28.314-7.578 38.315 2.901 30.14 31.71 84.002 43.435 125.508 26.88 43.486-17.289 70.81-59.085 68.096-103.987-0.836-14.080 9.984-26.351 24.713-27.972 19.251-2.116 38.605-3.209 57.993-3.209 18.415 0 36.83 0.99 55.279 2.901 14.575 1.536 25.412 13.483 24.917 27.426-1.673 44.407 25.993 85.47 68.881 102.161 41.421 16.094 94.737 4.284 124.689-27.034 9.933-10.257 26.385-11.52 38.007-3.004 30.089 22.494 57.515 48.247 81.442 76.612 9.301 10.974 7.97 26.931-3.004 36.386-35.072 30.225-46.438 78.234-28.211 119.501 17.135 38.844 58.487 64.956 102.997 64.956l6.195-0.154c14.438-1.126 27.733 9.455 29.508 23.484 4.454 36.045 4.489 72.636 0.205 108.937zM512.819 287.181c-92.621 0-167.953 71.697-167.953 159.795s75.349 159.761 167.953 159.761c92.553 0 167.902-71.663 167.902-159.761s-75.349-159.795-167.902-159.795z" />
<glyph unicode="&#xe912;" glyph-name="trade-finance" d="M499.063 99.345c-9.967-10.155-20.292-20.087-31.3-29.508v87.023c-13.739 33.86-21.367 70.758-21.367 109.466s7.629 75.605 21.367 109.449v63.812h35.772c11.452 15.445 24.388 29.781 38.588 42.684h-74.342v110.814c51.627 1.877 103.066 10.718 152.866 26.505 8.499-25.771 14.78-52.019 19.012-78.524 13.517 4.847 27.443 8.704 41.694 11.588-4.676 27.648-11.418 54.886-20.224 81.425 36.898 14.78 72.516 33.57 106.411 56.286 31.317-43.588 53.828-93.798 65.331-147.951 16.435-5.666 32.222-12.698 47.172-21.026-12.988 94.054-55.876 180.958-124.092 249.19-82.022 82.057-191.215 127.625-307.422 128.205h-4.403c-240.486-1.195-435.302-197.188-435.575-437.367 0-0.171-0.017-0.307-0.017-0.495 0-0.085 0.017-0.205 0.017-0.341 0-0.649-0.017-1.263-0.017-1.877 0.597-116.565 46.455-226.014 129.092-308.207 82.603-82.159 192.239-127.403 308.702-127.454 0 0 0.034 0 0.068 0h0.102l2.133 0.051c37.632 0.154 74.103 5.137 108.937 14.285-22.391 17.698-42.138 38.554-58.505 61.969zM740.71 723.78c-30.191-19.917-61.918-36.523-94.652-49.698-21.589 51.149-50.995 99.328-87.876 143.019-8.619 10.189-17.681 20.139-27.068 29.747 82.278-18.159 155.17-62.157 209.596-123.068zM467.763 847.787v0c20.77-17.818 40.192-37.342 57.788-58.214 33.894-40.141 60.484-83.985 80.026-129.946-44.902-14.012-91.273-21.948-137.813-23.808v211.968zM361.694 846.933c-27.785-28.262-51.797-59.409-72.602-92.365-16.213-25.719-30.635-52.463-42.359-80.486h-0.017c-32.836 13.21-64.649 29.901-94.925 49.92 54.391 60.877 127.317 104.841 209.903 122.931zM124.996 690.551c33.946-22.852 69.734-41.66 106.735-56.508-13.602-41.199-22.477-84.275-26.214-128.631-0.649-7.68-1.092-15.411-1.434-23.125h-152.218c4.113 77.363 30.618 148.924 73.131 208.265zM125.116 231.407c-5.325 7.441-10.394 15.036-15.206 22.801-33.655 54.477-54.426 117.709-58.078 185.395h152.030c1.69-52.19 10.684-103.356 26.539-152.32-2.85-1.143-5.632-2.475-8.431-3.669-33.468-14.165-65.946-31.42-96.853-52.207zM356.454 76.134c-80.247 18.825-151.194 62.276-204.476 121.873 29.747 19.627 60.962 36.062 93.252 49.186 17.254-41.779 39.919-81.425 67.328-118.443 7.1-9.591 14.302-19.063 22.050-28.228 7.014-8.294 14.319-16.435 21.845-24.32-0.017 0-0.017 0-0.034 0 0.017-0.017 0.017-0.017 0.034-0.068zM425.028 69.854c-20.736 17.783-40.175 37.342-57.754 58.214-34.799 41.216-61.969 86.34-81.664 133.7 45.431 14.336 92.365 22.391 139.418 24.286v-216.201zM425.028 328.823c-52.087-1.929-103.936-10.94-154.095-26.948h-0.017c-13.858 43.383-21.658 88.047-23.74 132.881-0.068 1.604-0.273 3.209-0.341 4.796v0.051h178.176v-110.78zM425.028 482.287h-177.937c2.15 46.558 10.581 92.774 25.19 137.267 49.766-15.77 101.188-24.559 152.764-26.505v-110.763zM425.028 635.819c-46.507 1.843-92.809 9.779-137.728 23.757v0.051c29.901 70.417 75.947 135.134 137.728 188.16v-211.968zM852.122 346.573c0 7.27-6.332 13.602-13.602 13.602h-163.328c-7.27 0-13.602-6.332-13.602-13.602s6.332-13.636 13.602-13.636h52.599c28.177 0 40.892-7.236 47.206-18.125h-99.806c-7.27 0-13.602-6.383-13.602-13.602 0-7.287 6.332-13.653 13.602-13.653h104.363c-0.905-19.063-9.028-36.318-51.763-36.318h-52.599c-5.41 0-10.923-3.618-12.732-8.141-1.792-5.427-0.87-10.906 2.799-14.507l108.885-108.885c2.697-2.748 6.315-3.618 9.933-3.618s7.287 0.87 9.984 3.618c5.461 5.41 5.461 13.602 0 19.012l-85.248 85.299h18.978c65.365 0 78.063 38.127 78.967 63.522h31.761c7.27 0 13.602 6.366 13.602 13.653 0 7.219-6.332 13.602-13.602 13.602h-34.492c-1.792 6.366-4.523 12.681-9.062 18.125h43.554c7.27 0.017 13.602 6.383 13.602 13.653zM769.536 441.822c8.209 0 13.636 5.461 14.541 12.681 0.905 7.287-5.41 14.558-12.698 14.558-7.27 0-14.507-5.41-14.507-12.698-0.905-7.287 5.427-13.619 12.663-14.541zM941.073 281.242c0.905-6.366 6.315-11.776 13.602-11.776 0.905 0 0.905 0 1.792 0 7.236 0.905 12.732 8.141 11.793 15.394-0.87 7.287-8.175 12.749-15.411 11.793-7.27-0.905-12.732-8.141-11.776-15.411zM560.879 296.653c0.905 0 2.714-0.905 3.618-0.905 5.427 0 10.889 3.652 12.698 9.984 2.748 7.236-1.809 15.445-9.079 17.254-7.236 2.714-14.524-1.792-16.333-9.079-2.714-8.175 1.826-15.462 9.097-17.254zM716.032 437.299h2.714c7.219 1.792 12.681 9.062 10.889 16.35-1.843 7.236-9.079 12.681-16.35 10.889-8.141-1.843-12.698-9.079-10.906-16.35 1.826-6.366 7.322-10.889 13.653-10.889zM818.551 430.967c1.792 0 3.652-0.922 4.557-0.922 5.427 0 10.889 3.635 12.698 9.045 2.714 7.27-0.956 14.558-8.175 17.254-7.27 2.714-14.507-0.905-17.254-8.175-2.731-7.219 0.887-14.49 8.175-17.203zM940.117 322.031c1.843 0 3.652 0 5.461 0.956 7.27 3.618 9.984 10.889 7.27 18.125-2.697 7.287-10.889 9.984-18.142 7.287-7.287-3.618-9.984-10.906-7.287-18.159 1.843-5.444 7.287-8.209 12.698-8.209zM579.004 348.382c2.765-1.809 4.574-2.765 7.287-1.809 4.523 0 9.028 1.809 11.776 6.332 3.669 6.366 1.809 15.445-4.557 19.063-6.332 3.618-15.411 1.792-19.063-4.54-3.618-7.253-1.809-15.428 4.557-19.046zM863.949 104.277c-5.461-4.523-7.322-12.646-2.765-19.029 2.765-3.652 7.287-5.444 9.984-5.444 2.714 0 5.427 0.905 8.209 2.697 6.332 4.574 8.158 12.698 3.618 19.063-4.591 5.461-12.732 7.27-19.046 2.714zM911.121 369.254c3.618 0 6.315 0.905 9.114 2.714 5.376 4.557 6.332 13.602 1.775 19.046-4.574 5.427-13.602 6.383-19.012 1.809-5.513-4.574-6.417-13.602-1.843-19.063 2.679-3.618 6.349-5.41 9.967-4.506zM872.090 406.426c3.652 0 8.141 1.792 10.923 5.461 3.618 6.315 2.714 14.507-3.618 19.063-6.4 3.618-14.541 2.714-19.046-3.669-3.703-6.315-2.765-14.507 3.618-19.063 2.679-1.792 5.393-2.679 8.124-1.792zM819.49 80.708c-7.322-2.714-10.94-9.95-8.209-17.22 1.843-5.461 7.287-9.079 12.732-9.079 1.809 0 2.714 0 4.54 0.905 7.27 2.714 10.923 9.984 8.175 17.271-2.748 7.219-10.018 10.871-17.237 8.124zM570.829 255.812c0 7.27-6.332 13.636-13.602 13.636-7.253 0-13.585-6.366-13.585-14.558 0-7.27 6.332-13.602 13.585-12.681 7.27 0 13.602 6.366 13.602 13.602zM956.467 243.115c-7.27 0.939-14.507-4.574-15.394-11.793-0.956-7.27 4.523-14.507 11.776-15.394 0.922 0 0.922-0.956 1.809 0 6.315 0 12.732 4.557 13.602 11.742 0.939 7.27-4.557 14.541-11.793 15.445zM770.509 70.758c-7.322-0.939-12.749-7.27-12.749-14.541 0-7.287 6.332-12.698 13.602-12.698h0.956c7.236 0.905 13.568 7.236 12.646 14.507-0.905 7.253-7.219 13.585-14.455 12.732zM902.042 138.752c-5.461-5.41-4.574-14.507 1.792-19.012 1.843-1.809 5.461-2.748 8.175-2.748 4.523 0 8.209 0.939 10.889 4.557 4.523 5.461 3.669 14.507-1.843 19.029-5.427 5.444-14.473 3.635-19.012-1.826zM945.579 189.577c-7.27 2.748-15.411 0-18.159-7.287-2.697-7.236 0-15.394 7.287-18.125 1.792-0.905 3.618-0.905 5.41-0.905 5.461 0 10.889 2.714 12.732 8.141 2.714 7.287 0 15.462-7.27 18.176zM579.942 163.277c-6.366-4.574-8.209-12.698-4.574-19.063 1.809-4.523 6.383-6.366 11.793-6.366 2.714 0 5.461 0.905 7.27 1.843 6.366 4.523 8.141 12.698 4.523 19.012-4.506 6.383-12.663 8.192-19.012 4.574zM578.099 205.039c-2.714 7.219-9.984 10.889-17.22 9.062-7.287-1.843-10.906-9.062-9.097-16.35 1.809-6.366 7.305-9.984 13.619-10.889 0.922 0 2.714 0.905 3.618 0.905 7.287 2.748 10.923 9.984 9.079 17.271zM719.65 74.359c-7.236 0.87-14.507-3.618-16.316-10.889-0.956-7.27 3.618-14.558 10.889-16.35 0.922 0 1.809-0.905 2.714 0 6.366 0 12.698 4.523 13.602 10.889 0.887 7.27-3.618 14.558-10.889 16.35zM610.765 118.835c-4.523-5.461-4.523-13.653 0.905-19.063 2.714-2.714 6.366-3.618 9.079-3.618 3.652 0 7.27 1.792 9.984 4.523 4.523 5.41 4.523 13.602-0.905 19.063-5.427 4.506-13.602 4.506-19.063-0.905zM611.669 411.904c-5.41-5.461-6.315-13.653-0.905-19.063 2.714-3.618 6.332-4.574 9.984-4.574 2.714 0 6.366 0.956 9.079 3.669 5.41 4.523 6.315 13.602 0.905 19.063-4.523 5.41-13.636 6.366-19.063 0.905zM672.478 89.788c-6.366 3.652-14.558 0.905-18.159-5.461-3.618-6.332-0.905-14.507 5.427-18.125 1.826-0.922 3.686-1.809 6.366-1.809 4.557 0 9.062 2.714 11.776 7.236 3.635 6.349 0.905 14.541-5.41 18.159zM664.269 419.174c1.843 0 4.608 0.905 6.4 1.809 6.332 3.618 9.045 11.776 5.427 18.125-3.618 6.366-11.827 9.079-18.159 5.461s-9.028-11.793-5.41-18.159c2.697-4.523 7.219-7.236 11.742-7.236zM756.873 514.423c-142.49 0-258.594-116.173-258.594-258.594 0-142.455 116.122-258.594 258.594-258.594 142.455 0 258.594 116.156 258.594 258.594 0 142.421-116.156 258.594-258.594 258.594zM756.873 24.457c-127.932 0-231.407 103.424-231.407 231.373 0 127.932 103.458 231.407 231.407 231.407s231.373-103.458 231.373-231.407c-0.017-127.966-103.424-231.373-231.373-231.373z" />
<glyph unicode="&#xe913;" glyph-name="transaction" d="M995.84 751.292l-194.253 194.27c-7.868 7.868-21.794 7.868-29.662 0l-194.253-194.27c-6.007-6.007-7.799-15.019-4.557-22.869 3.226-7.817 10.906-12.954 19.388-12.954h84.378v-68.54c-44.783 37.205-102.246 59.614-164.864 59.614-63.283 0-121.259-22.955-166.246-60.843-2.782 8.346-10.394 14.421-19.661 14.421h-177.715c-11.605 0-20.975-9.37-20.975-20.975v-458.359h-84.412c-8.482 0-16.145-5.086-19.388-12.954-3.26-7.868-1.451-16.879 4.557-22.869l194.27-194.287c3.925-3.942 9.25-6.144 14.848-6.144 5.581 0 10.906 2.202 14.831 6.144l194.253 194.287c6.007 5.99 7.817 15.002 4.557 22.869-3.243 7.868-10.906 12.954-19.388 12.954h-84.446v68.557c44.783-37.222 102.281-59.648 164.915-59.648 63.266 0 121.225 22.938 166.195 60.826 2.782-8.311 10.359-14.404 19.627-14.404h177.801c11.605 0 20.975 9.387 20.975 20.975v458.377h84.395c8.482 0 16.128 5.12 19.388 12.954 3.226 7.851 1.417 16.862-4.557 22.869zM380.894 138.82l-143.599-143.633-143.633 143.633h54.733c11.588 0 20.975 9.404 20.975 20.992v458.342h135.765v-15.804c-32.222-43.11-51.558-96.375-51.558-154.231s19.337-111.121 51.558-154.231v-134.076c0-11.605 9.387-20.992 20.975-20.992h54.784zM512.017 231.646c-119.364 0-216.474 97.075-216.474 216.474 0 119.364 97.092 216.474 216.474 216.474 119.33 0 216.474-97.109 216.474-216.474 0-119.381-97.143-216.474-216.474-216.474zM875.657 757.436c-11.605 0-20.992-9.404-20.992-20.975v-458.377h-135.817v15.77c32.239 43.11 51.575 96.41 51.575 154.283s-19.354 111.155-51.575 154.266v134.059c0 11.571-9.404 20.975-20.992 20.975h-54.699l143.599 143.633 143.599-143.633h-54.699zM617.728 547.499c0 8.073-7.049 15.121-15.087 15.121h-181.265c-8.073 0-15.121-7.049-15.121-15.121 0-8.055 7.049-15.104 15.121-15.104h58.385c31.232 0 45.329-8.055 52.378-20.139h-110.763c-8.073 0-15.121-7.049-15.121-15.121 0-8.038 7.049-15.104 15.121-15.104h115.797c-1.007-21.163-10.052-40.311-57.412-40.311h-58.385c-6.059 0-12.083-4.011-14.114-9.045-2.014-6.042-1.007-12.083 3.004-16.111l120.866-120.866c3.038-3.038 7.066-4.011 11.059-4.011 4.028 0 8.090 0.99 11.093 4.011 6.042 6.025 6.042 15.121 0 21.146l-94.669 94.669h21.146c72.516 0 86.613 42.325 87.637 70.519h35.226c8.038 0 15.087 7.066 15.087 15.104 0 8.073-7.049 15.121-15.087 15.121h-38.263c-1.997 7.049-5.035 14.097-10.086 20.139h48.35c8.055 0 15.104 7.049 15.104 15.104z" />
<glyph unicode="&#xe914;" glyph-name="warning" d="M1006.865 90.692c-19.49 34.031-412.826 713.643-446.464 771.635-22.118 38.093-74.803 37.444-96.905 0-24.695-41.728-420.045-723.951-447.505-773.359-20.156-36.147 2.099-83.627 47.94-83.627h894.737c41.574-0.017 72.55 42.94 48.196 85.35zM451.465 529.118h120.781v-82.142l-19.012-159.676h-82.739l-19.029 159.676v82.142zM572.911 166.519h-122.129v80.759h122.129v-80.759z" />
<glyph unicode="&#xe915;" glyph-name="excel" d="M410.146 477.764h119.211v-67.499h-119.211v67.499zM410.146 374.596h119.211v-67.43h-119.211v67.43zM437.282 170.94h52.156v-70.076h33.997v118.17h52.105v-118.17h38.434v160.137h52.122v-160.137h18.176v170.957h-274.125v-170.957h27.136zM669.338 951.467v-251.733h251.733zM565.026 477.764h119.228v-67.499h-119.228v67.499zM565.026 374.596h119.228v-67.43h-119.228v67.43zM255.607 271.821h119.211v-67.823h-119.211v67.823zM255.607 168.363h119.211v-67.499h-119.211v67.499zM606.396 951.467h-503.467v-1006.933h818.142v692.258h-314.675v314.675zM710.468 513.417h9.062v-448.239h-499.234v448.256h490.172zM255.607 374.596h119.211v-67.43h-119.211v67.43zM255.607 477.764h119.211v-67.499h-119.211v67.499zM437.282 100.864h52.156v-10.53h-52.156v10.53z" />
<glyph unicode="&#xe916;" glyph-name="pdf" d="M728.917 148.087h32.785v12.1h-32.785v21.521h38.246v12.083h-53.914v-78.217h15.667zM310.75 306.569c-0.341-0.119-0.683-0.256-1.041-0.393-0.341-0.102-0.7-0.273-1.024-0.375-0.358-0.119-0.7-0.273-1.058-0.427-0.341-0.137-0.7-0.239-1.058-0.375-12.271-4.881-23.774-10.035-34.185-15.292-10.547-5.342-19.968-10.786-28.058-16.196-8.107-5.427-14.865-10.82-19.951-15.974-5.12-5.239-8.585-10.189-10.121-14.711-0.717-2.185-1.058-4.369-0.905-6.588 0.154-2.253 0.7-4.523 1.69-6.81 1.007-2.287 2.406-4.591 4.233-6.98 1.826-2.321 4.062-4.676 6.69-7.049 2.628-2.389 5.205-4.352 7.697-5.888s4.915-2.662 7.236-3.379c2.355-0.751 4.608-1.058 6.81-0.99s4.301 0.563 6.383 1.451c5.291 2.253 10.65 7.031 15.94 13.5 5.325 6.468 10.53 14.609 15.565 23.825 4.983 9.165 9.796 19.405 14.199 29.918 4.403 10.581 8.431 21.453 11.93 32l-1.417-0.563 0.444 1.297zM691.644 124.706c6.195 6.059 9.284 13.892 9.284 23.501v12.954c0 9.557-3.089 17.391-9.284 23.501-6.178 6.093-14.080 9.148-23.654 9.148h-26.846v-78.217h26.846c9.574-0.017 17.476 3.021 23.654 9.114zM656.845 127.676v54.033h10.342c5.615 0 10.035-1.894 13.21-5.683 3.191-3.823 4.779-8.738 4.779-14.763v-13.039c0-6.127-1.604-11.076-4.779-14.865-3.191-3.806-7.595-5.683-13.21-5.683h-10.342zM585.182 143.957h15.462c8.994 0 16.060 2.27 21.214 6.81s7.731 10.581 7.731 18.057c0 7.475-2.577 13.517-7.731 18.125-5.154 4.591-12.22 6.861-21.214 6.861h-31.147v-78.217h15.684v28.365zM585.182 181.709h15.462c4.403 0 7.714-1.229 9.967-3.686 2.236-2.458 3.345-5.564 3.345-9.318 0-3.686-1.126-6.741-3.362-9.114-2.27-2.372-5.581-3.567-9.95-3.567h-15.462v25.685zM669.338 951.467v-251.733h251.733zM392.875 545.963l0.836-1.109c3.738 10.547 7.236 21.675 10.223 32.683 3.038 11.025 5.547 21.999 7.185 32.222 1.69 10.24 2.543 19.729 2.253 27.802-0.29 8.124-1.707 14.814-4.625 19.405-1.161 1.826-2.662 3.294-4.506 4.471-1.843 1.161-4.045 1.963-6.571 2.423-2.526 0.478-5.393 0.631-8.585 0.393-3.243-0.222-6.81-0.785-10.735-1.69-3.908-0.922-7.458-2.031-10.633-3.328-3.123-1.263-5.922-2.748-8.277-4.386-2.389-1.638-4.301-3.482-5.837-5.478-1.536-1.98-2.645-4.164-3.362-6.468-1.758-5.871-1.485-13.107 0.239-21.129 1.792-7.97 5.018-16.708 9.25-25.651 4.198-8.892 9.335-17.971 14.967-26.795 5.564-8.704 11.605-17.152 17.613-24.849l0.563 1.485zM606.396 951.467h-503.467v-1006.933h818.142v692.258h-314.675v314.675zM816.725 95.078h-320.853v119.211h320.853v-119.211zM609.485 417.553c1.997-2.987 3.465-6.366 4.454-10.138 0.956-3.721 1.399-7.834 1.331-12.339-0.068-4.489-0.649-9.37-1.758-14.575-1.058-5.205-2.679-10.803-4.779-16.777-2.133-5.99-4.437-11.401-6.912-16.265-2.509-4.898-5.188-9.216-8.038-13.022-2.867-3.823-5.939-7.066-9.165-9.796-3.226-2.714-6.673-4.915-10.308-6.519-4.591-2.048-9.284-3.106-14.165-3.14-4.949-0.051-10.035 0.922-15.292 2.918-5.308 1.997-10.786 5.052-16.486 9.114-5.734 4.13-11.691 9.387-17.801 15.667-2.782 2.867-5.495 5.803-8.021 8.755-2.56 2.918-4.915 5.82-7.134 8.585-2.167 2.799-4.233 5.444-6.007 7.868-1.792 2.475-3.413 4.659-4.693 6.571l-139.264-55.228c-0.853-2.953-1.929-6.417-3.191-10.325-1.246-3.908-2.679-8.209-4.267-12.834s-3.379-9.557-5.325-14.677c-1.929-5.086-4.028-10.428-6.298-15.804-5.001-11.861-10.121-22.613-15.394-32.205-5.291-9.609-10.684-18.091-16.265-25.429-5.581-7.322-11.281-13.551-17.152-18.62-5.922-5.086-11.947-9.045-18.159-11.827-4.983-2.202-9.967-3.669-14.899-4.352-4.983-0.734-9.899-0.631-14.814 0.256-4.915 0.853-9.796 2.56-14.609 5.018-4.881 2.492-9.728 5.769-14.507 9.882-4.83 4.147-8.892 8.482-12.083 13.005-3.243 4.557-5.683 9.267-7.253 14.148-1.553 4.898-2.321 9.916-2.185 15.087 0.137 5.205 1.109 10.547 2.953 15.974 2.782 8.209 7.509 16.316 14.131 24.337 6.588 7.953 15.053 15.684 25.276 23.228 10.121 7.458 22.016 14.711 35.533 21.675 13.38 6.844 28.297 13.397 44.681 19.627 2.185 0.853 4.284 1.638 6.298 2.389 1.997 0.7 3.942 1.417 5.734 2.031 1.843 0.649 3.55 1.246 5.171 1.775 1.587 0.546 3.106 1.058 4.471 1.519l56.405 164.506c-1.775 2.014-3.874 4.454-6.212 7.219-2.355 2.799-4.898 5.939-7.595 9.37-2.714 3.465-5.598 7.219-8.55 11.247-2.935 4.062-5.973 8.363-8.909 12.885-6.656 10.035-12.288 19.797-16.879 29.235-4.625 9.523-8.192 18.688-10.65 27.46-2.458 8.823-3.806 17.254-4.062 25.207-0.239 7.987 0.683 15.479 2.731 22.477 1.229 4.079 3.004 8.482 5.513 12.902 2.543 4.42 5.82 8.858 10.121 13.056 4.267 4.164 9.506 8.073 15.94 11.401 6.4 3.328 13.926 6.093 22.835 8.021 8.823 1.929 16.452 2.458 23.006 1.98 6.571-0.461 12.117-1.894 16.862-3.977 4.659-2.048 8.499-4.727 11.691-7.68 3.14-2.953 5.598-6.178 7.543-9.335 3.294-5.359 5.7-11.639 7.305-18.842 1.519-7.134 2.27-15.206 2.133-24.132-0.102-8.909-1.058-18.722-2.799-29.355-1.775-10.615-4.318-22.118-7.731-34.509-1.536-5.581-3.157-11.042-4.796-16.282-1.638-5.222-3.243-10.189-4.847-14.814-1.57-4.625-3.106-8.909-4.557-12.749-1.417-3.857-2.731-7.253-3.857-10.138l82.91-109.022c1.092 0.512 2.355 1.058 3.669 1.621 1.314 0.546 2.731 1.126 4.215 1.775 1.485 0.614 3.055 1.212 4.693 1.894 1.655 0.649 3.379 1.28 5.12 1.963 13.073 4.983 24.815 8.687 35.277 11.145 10.308 2.423 19.405 3.601 27.238 3.635 7.799 0 14.387-1.126 19.797-3.43 5.308-2.355 9.54-5.751 12.629-10.291zM590.848 396.322c-1.758 2.577-4.796 4.284-8.909 5.205-4.181 0.956-9.489 1.109-15.718 0.478-6.332-0.683-13.67-2.116-21.828-4.386-8.26-2.27-17.374-5.376-27.204-9.267-0.307-0.119-0.58-0.239-0.887-0.341-0.29-0.137-0.563-0.239-0.853-0.358s-0.563-0.222-0.853-0.341c-0.273-0.119-0.563-0.222-0.819-0.358l0.597-0.751-1.126-0.444c4.693-6.383 9.847-12.646 15.087-18.313 5.239-5.632 10.633-10.684 15.872-14.729 5.222-3.977 10.359-6.963 15.121-8.567 4.745-1.57 9.216-1.758 13.090-0.034 1.502 0.614 2.918 1.638 4.369 2.97 1.434 1.314 2.799 3.038 4.164 5.086 1.331 2.031 2.628 4.42 3.908 7.117 1.28 2.748 2.543 5.82 3.738 9.25 1.212 3.413 2.202 6.588 2.884 9.438 0.7 2.85 1.109 5.478 1.314 7.799 0.205 2.338 0.154 4.386-0.205 6.127-0.324 1.741-0.887 3.209-1.741 4.42zM357.393 355.447l109.995 41.95-66.509 84.343z" />
<glyph unicode="&#xe917;" glyph-name="text" d="M669.338 951.467v-251.733h251.733zM606.396 951.467h-503.467v-1006.933h818.142v692.258h-314.675v314.675zM471.723 628.89c2.509 2.133 6.144 3.209 10.871 3.209h92.023c5.001 0 8.721-1.109 11.162-3.311 2.423-2.219 3.635-5.103 3.635-8.687s-1.212-6.451-3.686-8.636c-2.492-2.185-6.161-3.26-11.11-3.26h-31.59v-103.817c0-5.99-1.331-10.428-3.977-13.329-2.645-2.884-6.076-4.335-10.342-4.335s-7.799 1.485-10.462 4.386c-2.679 2.918-4.011 7.322-4.011 13.261v103.817h-31.607c-4.932 0-8.602 1.092-11.042 3.311-2.406 2.167-3.601 5.052-3.601 8.619-0.017 3.686 1.246 6.622 3.738 8.772zM361.062 605.184c-2.56 4.028-4.454 7.492-5.717 10.377-1.28 2.901-1.894 5.683-1.894 8.346 0 2.714 1.212 5.188 3.652 7.356 2.406 2.167 5.393 3.26 8.909 3.26 4.028 0 7.168-1.178 9.404-3.55 2.253-2.389 5.376-6.793 9.318-13.227l21.453-34.697 22.903 34.697c1.877 2.918 3.482 5.427 4.83 7.509 1.331 2.065 2.628 3.789 3.874 5.154 1.212 1.365 2.611 2.389 4.13 3.072 1.536 0.666 3.294 1.024 5.325 1.024 3.618 0 6.588-1.092 8.926-3.26 2.304-2.167 3.43-4.762 3.43-7.748 0-4.352-2.475-10.274-7.492-17.749l-28.16-42.121 30.31-46.694c2.731-4.096 4.71-7.492 5.956-10.172 1.229-2.697 1.86-5.257 1.86-7.646 0-2.287-0.597-4.369-1.69-6.263-1.092-1.877-2.645-3.379-4.642-4.471-2.048-1.092-4.318-1.655-6.844-1.655-2.714 0-5.018 0.563-6.912 1.69-1.894 1.161-3.447 2.577-4.608 4.267-1.178 1.69-3.345 4.966-6.519 9.847l-25.156 39.578-26.692-40.738c-2.082-3.26-3.567-5.53-4.454-6.844-0.87-1.314-1.929-2.56-3.157-3.806s-2.697-2.202-4.386-2.918c-1.69-0.717-3.686-1.075-5.956-1.075-3.516 0-6.417 1.075-8.738 3.209-2.304 2.15-3.465 5.257-3.465 9.353 0 4.813 2.372 10.701 7.1 17.681l32 46.694-26.897 41.523zM226.202 611.499c-2.423 2.167-3.601 5.052-3.601 8.619 0 3.686 1.263 6.622 3.755 8.772 2.509 2.133 6.144 3.209 10.889 3.209h92.006c5.018 0 8.721-1.109 11.162-3.311 2.458-2.219 3.669-5.103 3.669-8.687s-1.246-6.451-3.721-8.636c-2.441-2.185-6.161-3.26-11.11-3.26h-31.573v-103.817c0-5.99-1.331-10.428-3.994-13.329-2.662-2.884-6.093-4.335-10.325-4.335-4.284 0-7.782 1.485-10.479 4.386-2.697 2.918-4.045 7.322-4.045 13.261v103.817h-31.573c-4.949 0-8.636 1.092-11.059 3.311zM243.268 360.346v19.388h464.725v-19.388h-464.725zM707.994 302.268v-19.354h-464.725v19.354h464.725zM707.994 50.534h-464.725v19.405h464.725v-19.405zM710.895 128h-467.627v19.388h467.627v-19.388zM710.895 205.466h-467.627v19.354h467.627v-19.354zM707.994 457.199v-19.371h-464.725v19.371h464.725z" />
<glyph unicode="&#xe918;" glyph-name="word" d="M672 951.467v-251.733h256zM608 951.467h-512v-1006.933h832v692.258h-320v314.675zM221.935 600.149h271.104v-19.371h-271.104v19.371zM221.935 290.321h193.673v-19.354h-193.673v19.354zM221.935 212.873h193.673v-19.354h-193.673v19.354zM221.935 135.441h193.673v-19.388h-193.673v19.388zM686.66 38.588h-464.725v19.405h464.725v-19.405zM474.795 270.967h29.833l21.436-92.262h0.393l23.501 92.262h27.904l23.159-93.423h0.358l22.238 93.423h29.218l-36.454-135.526h-29.559l-22.972 92.245h-0.393l-22.562-92.245h-30.225l-35.874 135.526zM686.66 348.399h-464.725v19.388h464.725v-19.388zM686.66 425.882h-464.725v19.371h464.725v-19.371zM686.66 522.701v-19.388h-464.725v19.388h464.725z" />
<glyph unicode="&#xe919;" glyph-name="arrow-left" d="M296.96 374.562v0l430.080-430.029 83.2 83.268-430.046 430.046 410.436 410.402-83.2 83.217-493.67-493.619z" />
<glyph unicode="&#xe91a;" glyph-name="arrow-right" d="M810.24 457.847l-493.67 493.619-83.2-83.217 410.436-410.402-430.046-430.046 83.2-83.268 430.080 430.029z" />
<glyph unicode="&#xe91b;" glyph-name="dropdown" d="M512 145.971l-503.467 604.058h1006.933l-503.467-604.058z" />
<glyph unicode="&#xe91c;" glyph-name="marked" d="M328.892 222.106l-240.282 243.251-80.077-81.084 320.358-324.369 686.575 695.057-80.077 81.135-606.498-613.99z" />
<glyph unicode="&#xe91d;" glyph-name="pending" d="M1006.865 90.692c-19.49 34.014-412.826 713.609-446.464 771.601-22.118 38.076-74.803 37.444-96.905 0-24.695-41.728-420.045-723.917-447.505-773.325-20.156-36.164 2.099-83.593 47.94-83.593 46.49 0 862.669 0 894.737 0 41.574-0.017 72.55 42.906 48.196 85.316zM451.465 529.101h120.781v-82.159l-19.012-159.642h-82.739l-19.029 159.642v82.159zM572.911 166.502h-122.129v80.811h122.129v-80.811z" />
<glyph unicode="&#xe91e;" glyph-name="profile" d="M54.767 448c0 251.733 205.5 457.233 457.233 457.233s457.25-205.5 457.25-457.233c0-123.307-48.811-235.025-128.41-317.252-12.868 60.365-51.388 163.123-169.574 229.922 26.965 33.399 42.359 77.073 42.359 123.307 0 110.455-89.907 200.346-200.346 200.346-110.455 0-200.363-89.907-200.363-200.346 0-46.234 16.708-88.627 42.377-123.307-119.45-66.799-157.969-169.557-169.54-229.922-80.896 80.913-130.987 193.946-130.987 317.252zM512 951.467c-277.419 0-503.467-226.048-503.467-503.467 0-152.849 69.342-290.287 177.237-382.754 1.28-1.263 2.56-2.56 5.137-3.891 87.33-73.199 199.083-116.855 322.372-116.855 120.713 0 232.448 43.657 319.812 114.278 5.137 1.297 8.96 5.171 11.554 8.994 104.055 93.815 170.82 228.659 170.82 380.228 0 277.419-226.014 503.467-503.467 503.467zM512 636.791c84.787 0 154.129-69.342 154.129-154.112 0-84.787-69.342-154.129-154.129-154.129-84.77 0-154.112 69.342-154.112 154.129 0 84.77 69.342 154.112 154.112 154.112zM513.28-9.216c-109.158-0.017-208.060 37.222-286.413 100.164 2.56 37.257 23.108 163.106 161.826 233.745 34.679-26.965 77.056-42.377 123.29-42.377s89.924 16.708 124.587 43.691c137.438-70.656 159.266-193.929 163.14-233.762-78.336-62.959-178.551-101.461-286.43-101.461z" />
<glyph unicode="&#xe91f;" glyph-name="sorting-down" d="M477.030-40.755c9.796-9.728 22.545-14.711 35.174-14.711 12.732 0 25.481 4.983 35.123 14.711l340.685 341.197c19.371 19.371 19.371 50.944 0 70.673l-47.121 47.223c-19.371 19.251-50.944 19.251-70.554 0l-175.189-175.633v658.825c0 27.511-22.528 49.937-49.818 49.937h-66.492c-27.511 0-49.818-22.187-49.818-49.937v-658.944l-175.36 175.514c-19.302 19.371-51.063 19.371-70.537 0l-47.172-47.223c-19.319-19.371-19.319-51.063 0-70.673l341.077-340.958z" />
<glyph unicode="&#xe920;" glyph-name="sorting-up" d="M546.97 936.755c-9.796 9.728-22.545 14.711-35.174 14.711-12.732 0-25.481-4.983-35.123-14.711l-340.668-341.197c-19.371-19.371-19.371-50.944 0-70.673l47.121-47.223c19.371-19.251 50.944-19.251 70.554 0l175.189 175.633v-658.842c0-27.494 22.528-49.937 49.818-49.937h66.492c27.511 0 49.818 22.204 49.818 49.937v658.944l175.36-175.514c19.302-19.371 51.063-19.371 70.537 0l47.172 47.223c19.319 19.371 19.319 51.063 0 70.673l-341.094 340.975z" />
<glyph unicode="&#xe921;" glyph-name="maximize" d="M8.533 622.131l503.467-497.562 151.040 149.282-503.467 497.579-151.040-149.299zM360.96 273.852l151.040-149.282 503.467 497.562-151.040 149.299-503.467-497.579z" />
<glyph unicode="&#xe922;" glyph-name="minimize" d="M159.573 124.57l503.467 497.579-151.040 149.282-503.467-497.562 151.040-149.299zM864.427 124.57l151.040 149.299-503.467 497.562-151.040-149.282 503.467-497.579z" />
<glyph unicode="&#xe923;" glyph-name="checkbox-checked" d="M924.553-55.467h-825.122c-50.125 0-90.897 40.789-90.897 90.914v825.122c0 50.125 40.772 90.897 90.897 90.897h825.122c50.142 0 90.914-40.772 90.914-90.897v-825.122c0-50.125-40.789-90.914-90.914-90.914zM99.43 934.69c-40.875 0-74.121-33.246-74.121-74.121v-825.122c0-40.892 33.246-74.138 74.121-74.138h825.122c40.892 0 74.138 33.246 74.138 74.138v825.122c0 40.875-33.246 74.121-74.138 74.121h-825.122zM87.279 460.578c-9.267 13.551-5.769 32.085 7.799 41.335s32.085 5.769 41.353-7.799l198.127-290.594 556.476 556.459c11.622 11.639 30.515 11.639 42.138 0 11.657-11.657 11.657-30.549 0-42.172l-581.888-581.803c-1.28-1.314-2.714-2.475-4.267-3.55-13.551-9.233-32.085-5.751-41.335 7.817l-218.402 320.307z" />
<glyph unicode="&#xe924;" glyph-name="checkbox" d="M924.553-55.467h-825.122c-50.125 0-90.897 40.789-90.897 90.914v825.122c0 50.125 40.772 90.897 90.897 90.897h825.122c50.142 0 90.914-40.772 90.914-90.897v-825.122c0-50.125-40.789-90.914-90.914-90.914zM99.43 934.69c-40.875 0-74.121-33.246-74.121-74.121v-825.122c0-40.892 33.246-74.138 74.121-74.138h825.122c40.892 0 74.138 33.246 74.138 74.138v825.122c0 40.875-33.246 74.121-74.138 74.121h-825.122z" />
<glyph unicode="&#xe925;" glyph-name="radiobuttion-checked" d="M867.942 803.959c-98.321 98.338-216.986 147.507-355.942 147.507-138.991 0-257.621-49.169-355.959-147.507-98.355-98.321-147.507-216.986-147.507-355.959 0-139.025 49.169-257.621 147.507-355.942 98.338-98.355 216.969-147.524 355.959-147.524 138.974 0 257.621 49.169 355.942 147.524 98.355 98.321 147.524 216.969 147.524 355.942-0.017 138.974-49.186 257.638-147.524 355.959zM823.706 135.287c-85.914-86.528-189.764-129.792-311.706-129.792s-225.86 43.264-311.723 129.775c-85.897 86.562-128.819 190.788-128.819 312.73s42.923 225.826 128.819 311.723c85.862 85.862 189.781 128.802 311.723 128.802s225.809-42.957 311.706-128.819c85.828-85.879 128.836-189.781 128.836-311.723s-42.974-226.15-128.836-312.695zM511.607 753.391c-169.609 0-307.098-137.506-307.098-307.115s137.489-307.098 307.098-307.098c169.609 0 307.115 137.489 307.115 307.098 0.017 169.609-137.506 307.115-307.115 307.115z" />
<glyph unicode="&#xe926;" glyph-name="radiobuttion-unchecked" d="M867.942 803.959c-98.321 98.338-216.986 147.507-355.942 147.507-138.991 0-257.621-49.169-355.959-147.507-98.355-98.321-147.507-216.986-147.507-355.959 0-139.025 49.169-257.621 147.507-355.942 98.338-98.355 216.969-147.524 355.959-147.524 138.974 0 257.621 49.169 355.942 147.524 98.355 98.321 147.524 216.969 147.524 355.942-0.017 138.974-49.186 257.638-147.524 355.959zM823.706 135.287c-85.914-86.528-189.764-129.792-311.706-129.792s-225.86 43.264-311.723 129.775c-85.897 86.562-128.819 190.788-128.819 312.73s42.923 225.826 128.819 311.723c85.862 85.862 189.781 128.802 311.723 128.802s225.809-42.957 311.706-128.819c85.828-85.879 128.836-189.781 128.836-311.723s-42.974-226.15-128.836-312.695z" />
<glyph unicode="&#xe927;" glyph-name="success-message" d="M512 951.467c-278.050 0-503.467-225.399-503.467-503.467s225.417-503.467 503.467-503.467c278.067 0 503.467 225.399 503.467 503.467s-225.399 503.467-503.467 503.467zM407.398 226.27l-183.057 185.31 45.773 46.336 137.301-138.991 346.505 350.805 45.79-46.336-392.311-397.124z" />
<glyph unicode="&#xe928;" glyph-name="xe-live" d="M524.988 106.82c-0.171 0-0.375 0-0.546 0-14.37 0.256-26.846 9.916-30.72 23.757l-144.060 516.693-78.148-227.806c-4.506-13.107-16.828-21.914-30.72-21.914h-199.782c-17.937 0-32.478 14.541-32.478 32.478s14.558 32.461 32.478 32.461h176.572l104.55 304.759c4.608 13.466 17.903 22.289 31.659 21.931 14.217-0.427 26.522-10.035 30.345-23.74l142.899-512.546 130.202 409.481c4.028 12.612 15.292 21.521 28.501 22.545 12.971 1.109 25.685-6.076 31.573-17.954l97.417-196.335h168.243c17.971 0 32.478-14.558 32.478-32.478 0-17.954-14.524-32.478-32.478-32.478h-188.382c-12.339 0-23.603 6.997-29.082 18.039l-70.673 142.438-138.889-436.668c-4.284-13.534-16.828-22.665-30.959-22.665z" />
<glyph unicode="&#xe929;" glyph-name="arrow-down" d="M8.533 640.41l503.211-487.68 503.723 488.175-105.626 102.366-398.097-385.741-397.568 385.229-105.643-102.349z" />
<glyph unicode="&#xe92a;" glyph-name="arrow-up" d="M1015.467 255.59l-503.211 487.68-503.723-488.175 105.626-102.366 398.097 385.741 397.568-385.229 105.643 102.349z" />
<glyph unicode="&#xe92b;" glyph-name="brand-story" d="M414.498-55.552c-11.401 0-22.323 4.54-30.379 12.595l-362.991 362.991c-8.055 8.073-12.595 18.961-12.595 30.345 0 11.418 4.54 22.374 12.595 30.43l558.080 558.080c8.073 8.073 18.978 12.578 30.379 12.578l361.643 0.085c23.671 0 42.889-19.166 42.991-42.837l1.246-362.974c0.051-11.452-4.489-22.426-12.578-30.532l-557.995-558.165c-8.055-8.055-18.995-12.595-30.396-12.595zM112.299 350.379l302.217-302.131 514.935 515.089-1.024 302.251-301.005-0.068-515.123-515.14zM664.951 703.881c-28.416-28.467-28.45-74.598 0-103.014 28.433-28.45 74.598-28.484 103.049-0.017 28.433 28.433 28.399 74.564 0 103.031-28.45 28.433-74.581 28.416-103.049 0zM416.58 142.199c-10.991 0-21.999 4.164-30.379 12.561l-167.356 167.356c-16.794 16.742-16.794 43.981 0 60.791 16.777 16.777 43.981 16.777 60.774 0l167.356-167.373c16.794-16.742 16.794-43.981 0-60.774-8.397-8.397-19.388-12.561-30.396-12.561zM519.543 245.077c-11.008 0-21.999 4.198-30.396 12.561l-167.424 167.356c-16.794 16.794-16.794 43.998-0.017 60.791 16.794 16.777 44.015 16.759 60.791 0.017l167.441-167.322c16.777-16.777 16.777-44.015 0.017-60.791-8.414-8.414-19.422-12.612-30.413-12.612z" />
<glyph unicode="&#xe92c;" glyph-name="cancel-search" d="M512-55.45c-0.034 0-0.085 0-0.137 0-139.059 0.853-258.782 50.449-355.823 147.439-30.583 30.635-57.327 64.597-79.497 100.966-35.209 58.317-56.917 122.863-64.614 191.932-2.287 18.466-3.396 39.202-3.396 63.078 0 139.11 49.664 258.918 147.558 356.028 96.99 97.809 216.764 147.456 355.908 147.456 138.308 0 258.065-49.63 355.942-147.541 97.894-97.007 147.524-216.815 147.524-355.942 0-138.308-49.63-258.065-147.541-355.977-97.894-97.007-217.566-146.586-355.806-147.439-0.034 0-0.085 0-0.119 0zM512 906.82c-128.58 0-234.667-43.964-324.318-134.383-90.539-89.805-134.485-195.908-134.485-324.471 0-22.033 1.024-40.977 3.089-57.89 7.1-63.761 26.214-120.576 58.436-173.978 20.275-33.263 44.8-64.427 72.892-92.57 89.634-89.583 195.755-133.53 324.386-134.349 127.846 0.819 233.984 44.783 324.454 134.451 90.402 90.402 134.4 196.523 134.4 324.335 0 128.58-43.964 234.684-134.4 324.335-90.573 90.539-196.659 134.519-324.454 134.519zM289.041 183.074c-5.7 0-11.418 2.15-15.77 6.519-8.721 8.721-8.721 22.852 0 31.59l222.14 222.106c8.704 8.721 22.852 8.721 31.556 0s8.704-22.852 0-31.573l-222.14-222.14c-4.352-4.352-10.069-6.502-15.787-6.502zM734.106 182.255c-5.7 0-11.418 2.15-15.787 6.519l-222.925 222.925c-8.721 8.721-8.721 22.852 0 31.573 8.704 8.721 22.852 8.721 31.556 0l222.942-222.925c8.704-8.721 8.704-22.852 0-31.59-4.352-4.352-10.086-6.502-15.787-6.502zM511.147 405.18c-5.7 0-11.401 2.15-15.753 6.485-8.738 8.738-8.772 22.852-0.051 31.573l223.795 224.597c8.704 8.721 22.835 8.789 31.59 0.051 8.721-8.704 8.755-22.835 0.051-31.556l-223.812-224.597c-4.369-4.369-10.086-6.554-15.821-6.554zM511.181 405.18c-5.717 0-11.435 2.185-15.804 6.554l-222.976 223.761c-8.704 8.738-8.67 22.869 0.051 31.556 8.721 8.721 22.852 8.687 31.556-0.051l222.959-223.761c8.721-8.721 8.687-22.835-0.051-31.573-4.335-4.335-10.035-6.485-15.735-6.485z" />
<glyph unicode="&#xe92d;" glyph-name="contest" d="M1015.467 736.427c0-13.653 0-27.307 0-40.96-1.707-8.533-3.413-18.773-5.12-27.307-11.947-61.44-42.667-112.64-81.92-160.427-47.787-58.027-105.813-104.107-168.96-146.773-3.413-1.707-6.827-5.12-10.24-8.533-15.36-18.773-30.72-37.547-44.373-58.027-22.187-29.013-39.253-59.733-51.2-95.573-15.36-47.787-10.24-93.867 22.187-133.12 11.947-15.36 27.307-30.72 39.253-46.080 6.827-6.827 13.653-10.24 23.893-10.24 20.48 1.707 42.667 0 63.147 0 3.413 0 6.827 0 11.947 0 0-22.187 0-44.373 0-66.56-201.387 0-404.48 0-605.867 0 0 22.187 0 44.373 0 66.56 29.013 0 54.613 0 80.213 0 3.413 0 8.533 1.707 11.947 3.413 23.893 22.187 44.373 46.080 59.733 75.093 11.947 22.187 18.773 46.080 15.36 73.387-3.413 34.133-15.36 66.56-34.133 95.573s-39.253 58.027-58.027 85.333c-3.413 5.12-8.533 10.24-13.653 13.653-51.2 34.133-98.987 69.973-141.653 114.347-46.080 47.787-85.333 98.987-105.813 163.84-5.12 18.773-8.533 39.253-13.653 58.027 0 13.653 0 27.307 0 40.96 0 1.707 1.707 3.413 1.707 5.12 6.827 64.853 51.2 95.573 100.693 105.813 10.24 1.707 20.48 3.413 30.72 5.12 0 34.133 0 66.56 0 100.693 245.76 0 493.227 0 738.987 0 0-34.133 0-66.56 0-98.987 10.24-1.707 20.48-3.413 30.72-5.12 49.493-10.24 85.333-37.547 98.987-88.747 1.707-5.12 3.413-13.653 5.12-20.48zM643.413 12.8c0 0 1.707 1.707 1.707 1.707-3.413 1.707-5.12 3.413-8.533 5.12-47.787 47.787-68.267 104.107-52.907 172.373 13.653 58.027 42.667 107.52 81.92 151.893 42.667 47.787 71.68 102.4 93.867 162.133 42.667 119.467 54.613 244.053 54.613 370.347 0 1.707 0 5.12-1.707 6.827-201.387 0-401.067 0-602.453 0 0-5.12 0-8.533 0-13.653 0-100.693 10.24-199.68 35.84-296.96 22.187-81.92 52.907-158.72 105.813-225.28 37.547-47.787 64.853-102.4 85.333-160.427 6.827-18.773 10.24-37.547 8.533-56.32-3.413-32.427-15.36-59.733-35.84-85.333-8.533-11.947-18.773-22.187-29.013-32.427 87.040 0 175.787 0 262.827 0zM146.773 782.507c-5.12 0-6.827 0-10.24 0-42.667-3.413-64.853-30.72-61.44-69.973 1.707-17.067 5.12-32.427 8.533-49.493 15.36-59.733 49.493-109.227 88.747-155.307 13.653-17.067 30.72-32.427 44.373-47.787 1.707 0 1.707 1.707 3.413 1.707-40.96 102.4-63.147 209.92-73.387 320.853zM877.227 784.213c-8.533-107.52-25.6-211.627-61.44-312.32 20.48 20.48 39.253 40.96 56.32 61.44 40.96 51.2 69.973 109.227 76.8 175.787 3.413 37.547-11.947 61.44-49.493 69.973-6.827 3.413-13.653 3.413-22.187 5.12z" />
<glyph unicode="&#xe92e;" glyph-name="cool-brands" d="M851.627 531.627c-29.013 0-58.027-1.707-87.040-3.413-56.32-5.12-112.64-15.36-168.96-25.6-23.893-5.12-47.787-6.827-71.68-6.827-54.613 0-109.227 10.24-165.547 18.773-58.027 10.24-117.76 17.067-175.787 17.067s-116.053-5.12-172.373-17.067v-75.093c6.827-15.36 13.653-30.72 18.773-47.787 5.12-22.187 5.12-44.373 11.947-66.56 22.187-81.92 76.8-128 158.72-139.947 3.413 0 22.187-1.707 49.493-1.707 22.187 0 49.493 1.707 76.8 3.413 51.2 8.533 85.333 40.96 105.813 88.747 13.653 34.133 25.6 69.973 39.253 104.107 5.12 13.653 13.653 25.6 22.187 37.547 6.827 8.533 13.653 11.947 20.48 11.947s13.653-3.413 20.48-11.947c11.947-17.067 20.48-34.133 29.013-52.907 10.24-23.893 18.773-49.493 27.307-75.093 22.187-61.44 63.147-98.987 129.707-104.107 1.707 0 17.067-1.707 40.96-1.707 25.6 0 59.733 1.707 90.453 6.827 83.627 20.48 126.293 78.507 141.653 160.427 3.413 18.773 3.413 37.547 6.827 54.613 3.413 11.947 10.24 22.187 17.067 34.133v75.093c-56.32 11.947-110.933 17.067-165.547 17.067zM407.893 405.333c-6.827-18.773-15.36-37.547-22.187-56.32-6.827-15.36-11.947-32.427-18.773-47.787-11.947-27.307-27.307-42.667-52.907-47.787-20.48-1.707-44.373-3.413-68.267-3.413s-39.253 1.707-40.96 1.707c-56.32 8.533-87.040 35.84-102.4 90.453-1.707 6.827-3.413 15.36-5.12 25.6-1.707 11.947-3.413 25.6-6.827 39.253-3.413 17.067-10.24 30.72-15.36 44.373 0 0 0 1.707 0 1.707v5.12c34.133 5.12 69.973 6.827 105.813 6.827 52.907 0 107.52-5.12 163.84-15.36 23.893-5.12 51.2-8.533 78.507-13.653-5.12-10.24-11.947-20.48-15.36-30.72zM948.907 456.533c-5.12-8.533-11.947-20.48-15.36-35.84s-5.12-29.013-5.12-39.253c0-6.827-1.707-11.947-1.707-18.773-10.24-61.44-37.547-93.867-88.747-107.52-27.307-5.12-56.32-5.12-76.8-5.12-18.773 0-32.427 0-34.133 1.707-37.547 3.413-58.027 20.48-73.387 59.733l-5.12 15.36c-6.827 20.48-15.36 42.667-23.893 64.853-6.827 17.067-15.36 32.427-22.187 46.080 1.707 0 5.12 0 6.827 1.707 52.907 10.24 109.227 20.48 162.133 23.893 29.013 1.707 56.32 3.413 81.92 3.413 32.427-1.707 64.853-5.12 95.573-10.24v0zM162.133 560.64c8.533 0 17.067 5.12 23.893 10.24 29.013 23.893 56.32 49.493 83.627 75.093 29.013 27.307 59.733 40.96 97.28 8.533 10.24-8.533 22.187-8.533 29.013 3.413 8.533 10.24 5.12 22.187-5.12 29.013-13.653 10.24-29.013 17.067-42.667 27.307h-35.84c-87.040-34.133-151.893-102.4-230.4-153.6 27.307 0 54.613-1.707 80.213 0zM658.773 656.213c37.547 25.6 58.027 23.893 90.453-5.12 29.013-25.6 58.027-52.907 87.040-80.213 5.12-5.12 11.947-8.533 18.773-10.24 27.307-1.707 56.32 0 83.627 0-8.533 6.827-17.067 13.653-27.307 20.48-66.56 44.373-122.88 104.107-199.68 131.413h-35.84c-13.653-8.533-29.013-17.067-40.96-25.6-11.947-6.827-15.36-18.773-6.827-30.72 8.533-10.24 20.48-8.533 30.72 0z" />
<glyph unicode="&#xe92f;" glyph-name="email" d="M512-55.467c-278.033 0-503.467 225.468-503.467 503.467 0 278.050 225.434 503.467 503.467 503.467 278.067 0 503.467-225.417 503.467-503.467 0-277.999-225.399-503.467-503.467-503.467zM549.564 778.394c-212.975 0-352.427-166.793-352.427-359.031 0-184.678 137.574-296.841 294.007-296.841 66.901 0 115.9 7.561 172.442 33.929l-16.93 53.726c-37.717-18.859-88.593-29.235-136.653-29.235-140.425 0-241.237 89.549-241.237 246.921 0 179.951 126.276 293.018 270.455 293.018 146.039 0 225.195-95.164 225.195-217.651 0-108.356-50.876-160.188-91.392-159.283-26.368 0.973-32.99 26.402-23.569 81.988l28.279 174.336c-23.552 13.158-70.69 23.569-112.145 23.569-135.697 0-220.484-104.567-220.484-219.58 0-77.227 44.271-122.522 105.54-122.522 49.954 0 92.365 24.525 121.583 72.602h1.877c4.693-49.988 36.727-72.602 81.033-72.602 101.769 0 179.012 86.716 179.012 224.29-0.034 158.362-118.75 272.367-284.587 272.367zM486.434 357.205c-31.13 0-47.138 22.596-47.138 58.402 0 72.567 49.015 133.837 111.189 133.837 12.271 0 21.692-1.894 29.201-3.772l-13.175-89.498c-8.482-54.699-45.227-98.97-80.077-98.97z" />
<glyph unicode="&#xe930;" glyph-name="facebook" d="M384.751 381.013v-434.807l218.129-1.673-0.853 437.726 134.758 0.905 37.598 188.706h-172.476v139.383c0 18.756 7.441 52.361 37.905 52.361l100.489-1.707-3.413 188.757-198.895 0.802c-68.028 0-153.139-87.194-153.139-176.247l-1.69-202.291-133.564-2.56v-188.57l135.151-0.785z" />
<glyph unicode="&#xe931;" glyph-name="fax" d="M991.283 577.519h-234.667v335.701c0 13.124-10.769 23.74-24.132 23.74h-441.071c-13.346 0-24.132-10.615-24.132-23.74v-335.701h-234.615c-13.346 0-24.132-10.752-24.132-24.013v-412.518c0-13.278 10.786-24.047 24.132-24.047h234.803v-133.615c0-13.414 10.786-24.269 24.132-24.269h440.644c13.363 0 24.132 10.854 24.132 24.269v133.615h234.906c13.363 0 24.183 10.769 24.183 24.047v412.518c0 13.261-10.82 24.013-24.183 24.013zM310.63 894.003h402.654v-316.484h-402.654v316.484zM713.574 2.236h-402.807v229.786h402.807v-229.786zM972.544 160.034l-216.166 0.085v90.761c0 13.431-10.769 24.286-24.132 24.286h-440.644c-13.346 0-24.132-10.854-24.132-24.286v-90.607h-215.859l-0.188 374.050 921.122-0.188v-374.101z" />
<glyph unicode="&#xe932;" glyph-name="featured-event" d="M921.412 856.542c-41.199 0.068-82.364 0-126.327 0 0 18.091-0.956 34.901 0.205 51.593 1.451 19.917-5.461 34.321-23.313 43.349h-15.77c-17.954-8.943-24.832-23.398-23.347-43.349 1.195-16.196 0.239-32.563 0.239-50.176h-189.884c0 16.64-0.973 33.468 0.239 50.142 1.451 19.985-5.513 34.321-23.364 43.383h-15.735c-17.971-8.943-24.832-23.398-23.364-43.349 1.178-16.196 0.239-32.563 0.239-50.176h-189.867c0 16.64-0.973 33.468 0.256 50.142 1.434 19.985-5.547 34.321-23.381 43.383h-15.735c-17.954-8.943-24.815-23.347-23.364-43.298 1.178-16.196 0.222-32.563 0.222-51.627h-80.998c-17.033 0-34.065 0.137-51.115 0-42.206-0.375-69.649-19.934-84.702-60.109-0.836-2.287-2.645-4.233-4.011-6.298v-779.179c12.629-31.744 31.249-57.344 67.396-64.239 8.26-1.587 16.879-2.116 25.344-2.116 273.92-0.102 547.857-0.102 821.794-0.034 58.522 0 92.331 34.15 92.331 93.116 0.085 241.783 0.085 483.652 0.051 725.436-0.051 60.023-33.69 93.338-94.037 93.406zM953.446 41.847c-0.034-30.703-4.608-35.294-35.157-35.294h-812.544c-29.73 0-34.731 4.796-34.731 33.724-0.017 240.009-0.017 480.034 0 720.060 0 29.15 5.069 34.202 34.185 34.202 40.55 0.068 81.084 0.034 124.194 0.034 0-21.879-0.324-40.858 0.085-59.767 0.41-20.446 12.681-34.116 30.14-34.526 18.176-0.461 31.232 13.619 31.659 35.021 0.375 18.859 0.068 37.786 0.068 57.975h189.884c0-18.927-0.188-37.717 0.051-56.474 0.29-21.982 12.049-36.028 30.089-36.523 18.825-0.529 31.437 13.978 31.795 36.915 0.273 17.033 0.205 34.116 0.375 51.149 0 1.195 0.7 2.389 1.519 4.915h188.006c0-18.859-0.171-37.615 0.034-56.371 0.307-22.016 11.981-36.028 30.071-36.591 18.773-0.597 31.556 13.978 31.829 36.813 0.239 18.261 0.068 36.523 0.068 57.105 47.667 0 93.952 0.666 140.22-0.836 6.093-0.171 12.919-10.82 17.425-17.92 2.423-3.755 0.7-10.223 0.7-15.445 0.034-239.394 0.068-478.771 0.034-718.165zM353.331 571.733h-122.607v-91.324h122.607v91.324zM573.986 572.006h-123.153v-90.675h123.153v90.675zM671.59 481.041h122.761v90.59h-122.761v-90.59zM230.827 323.601h122.761v90.59h-122.761v-90.59zM573.252 414.566h-122.761v-90.658h122.761v90.658zM793.924 414.857h-122.334v-91.221h122.334v91.221zM230.4 166.246h122.761v91.136h-122.761v-91.136zM451.294 166.281h122.743v91.102h-122.743v-91.102zM671.522 165.513h122.505v91.324h-122.505v-91.324z" />
<glyph unicode="&#xe933;" glyph-name="featured-gallery" d="M981.265 740.42h-208.759l-70.758 126.071c-4.437 7.902-11.827 13.722-20.565 16.179-8.67 2.423-18.091 1.331-25.993-3.106l-247.893-139.145h-147.558c-18.893 0-34.202-15.309-34.202-34.202v-67.84l-199.561-112.009c-16.452-9.25-22.306-30.089-13.073-46.558l252.774-450.27c6.281-11.179 17.869-17.476 29.85-17.476 5.666 0 11.401 1.417 16.708 4.386l247.979 139.179h421.052c18.859 0 34.202 15.343 34.202 34.202v516.386c0 18.893-15.326 34.202-34.202 34.202zM658.842 803.191l35.226-62.788h-147.063l111.838 62.788zM293.905 672.017h653.175v-214.118l-84.378 106.513c-6.775 8.619-17.254 13.517-28.314 12.919-11.025-0.495-21.077-6.246-27.102-15.445l-86.084-131.823-60.535 74.291c-6.622 8.124-17.203 12.919-27.051 12.595-10.479-0.171-20.275-5.12-26.658-13.466l-213.129-279.45h-99.908v447.983zM225.519 559.957v-319.147l-136.226 242.671 136.226 76.476zM308.582 92.826l-35.26 62.805h147.183l-111.923-62.805zM479.846 224.034l155.204 203.52 62.703-76.937c6.895-8.448 17.442-13.124 28.279-12.544 10.923 0.563 20.873 6.315 26.846 15.445l85.726 131.226 108.459-136.977v-123.733h-467.217zM444.587 414.31c56.695 0 102.827 46.114 102.827 102.81 0 56.713-46.131 102.861-102.827 102.861s-102.81-46.148-102.81-102.861c0-56.678 46.131-102.81 102.81-102.81zM444.587 551.578c18.995 0 34.441-15.445 34.441-34.458 0-18.961-15.445-34.423-34.441-34.423-18.978 0-34.423 15.445-34.423 34.423 0.017 19.012 15.445 34.458 34.423 34.458z" />
<glyph unicode="&#xe934;" glyph-name="featured-interview" d="M714.359 676.915h-21.675c10.308 23.842 16.435 49.903 16.435 77.466 0.017 108.681-88.422 197.086-197.12 197.086-108.681 0-197.035-88.405-197.035-197.086 0-27.563 6.059-53.623 16.418-77.466h-21.794c-17.715 0-32.017-14.336-32.017-32.034v-181.282c0-17.698 14.319-32.017 32.017-32.017h73.455l23.125-381.269c0.051-58.266 47.497-105.694 105.813-105.762 58.317 0.068 105.762 47.497 105.694 103.834l23.228 383.198h73.438c17.664 0 32.068 14.319 32.068 32.017v181.282c0.017 17.698-14.37 32.034-32.051 32.034zM379.034 754.381c0 73.335 59.631 133.001 132.966 133.001 73.353 0 133.018-59.665 133.018-133.001 0-29.133-10.069-55.586-26.129-77.466h-213.743c-16.043 21.879-26.112 48.333-26.112 77.466zM553.66 50.313c0-22.989-18.739-41.711-41.66-41.711-23.040 0-41.677 18.739-41.779 43.674l-22.938 379.307h129.417l-23.040-381.269zM682.325 495.633h-340.668v117.197h340.668v-117.197z" />
<glyph unicode="&#xe935;" glyph-name="featured-list" d="M181.026 808.823l-39.475 3.26-15.223 35.601c-3.345 7.851-11.059 12.937-19.593 12.954 0 0 0 0-0.017 0-8.533 0-16.247-5.086-19.61-12.919l-15.292-35.635-39.441-3.26c-8.585-0.7-15.923-6.519-18.551-14.746s-0.051-17.22 6.519-22.784l29.679-25.139-8.909-37.342c-1.997-8.346 1.195-17.067 8.107-22.135 6.912-5.103 16.179-5.53 23.535-1.161l33.963 20.173 33.894-20.173c3.379-2.014 7.134-3.004 10.906-3.004 0.051 0 0.119 0 0.171 0 11.025-0.273 21.504 9.489 21.504 21.333 0 3.038-0.631 5.922-1.775 8.533l-8.038 33.741 29.696 25.156c6.588 5.581 9.165 14.575 6.519 22.784s-9.967 14.063-18.569 14.763zM369.562 750.251h620.305c11.776 0 21.333 9.557 21.333 21.333s-9.557 21.333-21.333 21.333h-620.305c-11.776 0-21.333-9.557-21.333-21.333s9.557-21.333 21.333-21.333zM181.043 488.397l-39.475 3.26-15.223 35.601c-3.362 7.834-11.059 12.937-19.593 12.937 0 0 0 0-0.017 0-8.533 0-16.247-5.086-19.593-12.919l-15.292-35.635-39.458-3.26c-8.602-0.717-15.923-6.537-18.551-14.746s-0.051-17.203 6.519-22.784l29.679-25.139-8.909-37.342c-1.997-8.329 1.195-17.050 8.107-22.135 6.912-5.052 16.179-5.53 23.535-1.161l33.963 20.19 33.894-20.173c3.379-1.997 7.134-3.004 10.906-3.004 0.102 0.017 0.205 0.017 0.341 0 11.776 0 21.333 9.557 21.333 21.333 0 3.038-0.631 5.922-1.775 8.533l-8.038 33.758 29.696 25.156c6.588 5.581 9.165 14.575 6.519 22.784s-9.967 14.029-18.569 14.746zM989.867 472.474h-620.305c-11.776 0-21.333-9.557-21.333-21.333s9.557-21.333 21.333-21.333h620.305c11.776 0 21.333 9.557 21.333 21.333s-9.557 21.333-21.333 21.333zM181.043 167.953l-39.475 3.243-15.241 35.618c-3.362 7.851-11.059 12.954-19.593 12.954 0 0 0 0-0.017 0-8.533 0-16.247-5.086-19.61-12.919l-15.292-35.652-39.458-3.243c-8.602-0.717-15.923-6.537-18.551-14.763-2.628-8.209-0.051-17.22 6.537-22.784l29.662-25.105-8.909-37.342c-1.997-8.329 1.195-17.050 8.107-22.135 3.755-2.748 8.192-4.147 12.646-4.147 3.755 0 7.526 0.99 10.906 3.004l33.963 20.19 33.894-20.19c3.362-1.997 7.134-3.004 10.906-3.004 0.119 0.017 0.222 0.017 0.341 0 11.776 0 21.333 9.557 21.333 21.333 0 3.038-0.631 5.922-1.775 8.533l-8.021 33.758 29.679 25.122c6.588 5.564 9.165 14.575 6.537 22.784-2.645 8.209-9.967 14.029-18.569 14.746zM989.867 152.047h-620.305c-11.776 0-21.333-9.557-21.333-21.333s9.557-21.333 21.333-21.333h620.305c11.776 0 21.333 9.557 21.333 21.333s-9.557 21.333-21.333 21.333z" />
<glyph unicode="&#xe936;" glyph-name="featured-review" d="M790.921 527.94c0-30.087-24.39-54.477-54.477-54.477s-54.477 24.39-54.477 54.477c0 30.087 24.39 54.477 54.477 54.477s54.477-24.39 54.477-54.477zM566.494 527.94c0-30.096-24.398-54.494-54.494-54.494s-54.494 24.398-54.494 54.494c0 30.096 24.398 54.494 54.494 54.494s54.494-24.398 54.494-54.494zM342.033 527.94c0-30.096-24.398-54.494-54.494-54.494s-54.494 24.398-54.494 54.494c0 30.096 24.398 54.494 54.494 54.494s54.494-24.398 54.494-54.494zM387.106 32.785c-7.68 0-15.258 2.628-21.316 7.714l-181.709 152.166h-142.37c-18.33 0-33.195 14.848-33.195 33.178v604.16c0 18.33 14.865 33.195 33.195 33.195h940.544c18.33 0 33.195-14.865 33.195-33.195v-604.16c0-18.33-14.865-33.178-33.195-33.178h-540.365l-22.033-132.13c-1.963-11.776-10.052-21.555-21.231-25.685-3.738-1.399-7.646-2.065-11.52-2.065zM222.737 246.869l141.158-118.187 17.015 102.076c0.512 3.055 1.451 6.025 2.782 8.806 5.53 11.571 17.425 19.49 30.242 19.49h535.142v537.754h-874.155v-537.771h122.129c10.001 0.017 19.422-4.506 25.685-12.169z" />
<glyph unicode="&#xe937;" glyph-name="feeds" d="M67.243 949.726c-30.515 0-55.245-24.866-55.245-55.45 0-30.669 24.747-55.501 55.245-55.501 461.875 0 837.632-377.071 837.632-840.516 0-30.703 24.798-55.501 55.33-55.501 30.515 0 55.262 24.798 55.262 55.501 0 524.698-425.335 951.467-948.224 951.467zM67.243 599.45c-30.515 0-55.245-24.883-55.245-55.484 0-30.652 24.747-55.501 55.245-55.501 269.414 0 488.533-219.904 488.533-490.172 0-30.703 24.764-55.501 55.33-55.501 30.532 0 55.279 24.798 55.279 55.501 0 331.503-268.766 601.156-599.142 601.156zM151.859 225.263c-77.124 0-139.878-62.532-139.878-139.469 0-77.005 62.754-139.537 139.878-139.537 77.107 0 139.861 62.532 139.861 139.537 0.017 76.937-62.737 139.469-139.861 139.469z" />
<glyph unicode="&#xe938;" glyph-name="fun-videos" d="M988.16 726.187h-580.267c-15.36 0-27.307-11.947-27.307-29.013v-500.053c0-15.36 11.947-29.013 27.307-29.013h580.267c15.36 0 27.307 11.947 27.307 29.013v500.053c0 15.36-11.947 29.013-27.307 29.013zM959.147 226.133h-523.947v443.733h523.947v-443.733zM279.893 557.227l-233.813 87.040c-8.533 3.413-18.773 1.707-25.6-3.413s-11.947-13.653-11.947-23.893v-339.627c0-8.533 5.12-18.773 11.947-23.893 5.12-3.413 10.24-5.12 15.36-5.12 3.413 0 6.827 0 10.24 1.707l233.813 83.627c11.947 3.413 18.773 15.36 18.773 27.307v168.96c0 11.947-8.533 23.893-18.773 27.307zM242.347 383.147l-177.493-64.853v257.707l177.493-66.56v-126.293z" />
<glyph unicode="&#xe939;" glyph-name="games" d="M1013.76 87.893l-88.747 431.787c-17.067 80.213-88.747 139.947-174.080 139.947-47.787 0-92.16-18.773-124.587-51.2l-18.773-18.773h-191.147l-18.773 18.773c-34.133 32.427-78.507 51.2-124.587 51.2-83.627 0-157.013-58.027-174.080-139.947l-88.747-431.787c-6.827-30.72 6.827-61.44 34.133-78.507 11.947-8.533 27.307-11.947 40.96-11.947 15.36 0 32.427 5.12 46.080 15.36l134.827 98.987c17.067-8.533 35.84-13.653 58.027-13.653 58.027 0 107.52 39.253 121.173 92.16h134.827c13.653-52.907 63.147-92.16 121.173-92.16 20.48 0 40.96 5.12 58.027 13.653l134.827-98.987c25.6-18.773 59.733-20.48 87.040-3.413 25.6 17.067 39.253 47.787 32.427 78.507zM322.56 159.573c-34.133 0-63.147 27.307-63.147 61.44s29.013 61.44 63.147 61.44c34.133 0 63.147-27.307 63.147-61.44 0-32.427-27.307-61.44-63.147-61.44zM701.44 159.573c-34.133 0-63.147 27.307-63.147 61.44s29.013 61.44 63.147 61.44c34.133 0 63.147-27.307 63.147-61.44 0-32.427-29.013-61.44-63.147-61.44zM945.493 62.293c-3.413-1.707-8.533-3.413-15.36 0l-124.587 92.16c13.653 18.773 20.48 42.667 20.48 66.56 0 68.267-56.32 122.88-126.293 122.88-58.027 0-107.52-39.253-121.173-92.16h-134.827c-13.653 52.907-63.147 92.16-121.173 92.16-69.973 0-126.293-54.613-126.293-122.88 0-23.893 6.827-47.787 20.48-66.56l-124.587-92.16c-6.827-5.12-11.947-1.707-15.36 0s-8.533 6.827-6.827 13.653l88.747 431.787c10.24 51.2 58.027 90.453 112.64 90.453 30.72 0 59.733-11.947 80.213-32.427l27.307-27.307c5.12-5.12 13.653-8.533 22.187-8.533h218.453c8.533 0 17.067 3.413 22.187 8.533l27.307 27.307c22.187 20.48 49.493 32.427 80.213 32.427 54.613 0 100.693-37.547 112.64-90.453l88.747-431.787c3.413-6.827-1.707-11.947-5.12-13.653zM512 651.093c17.067 0 30.72 13.653 30.72 30.72v184.32c0 17.067-13.653 30.72-30.72 30.72s-30.72-13.653-30.72-30.72v-184.32c0-17.067 13.653-30.72 30.72-30.72z" />
<glyph unicode="&#xe93a;" glyph-name="googleplus-new" d="M323.942 514.731v-133.444h179.866c-26.914-70.895-95.471-121.31-175.821-121.31-103.851 0-188.041 84.19-188.041 188.041s84.19 188.058 188.041 188.058c46.285 0 88.593-16.759 121.361-44.476l94.157 92.177c-56.815 51.985-132.454 83.712-215.518 83.712-176.418-0.017-319.454-143.053-319.454-319.488s143.036-319.471 319.471-319.471 319.471 143.036 319.471 319.471c0 22.886-2.423 45.193-6.997 66.731h-316.535zM904.26 504.61v111.223h-80.879v-111.223h-111.223v-80.879h111.223v-111.206h80.879v111.206h111.206v80.879h-111.206z" />
<glyph unicode="&#xe93b;" glyph-name="googleplus" d="M854.494 739.362v158.037h-52.070v-158.037h-158.464v-51.115h158.464v-161.365h52.070v161.365h160.973v51.115h-160.973zM590.814 899.038c0 0-209.289 0-279.057 0-125.15 0-242.876-94.908-242.876-204.8 0-112.299 85.299-202.957 212.617-202.957 8.806 0 17.442 0.154 25.822 0.768-8.226-15.804-14.131-33.673-14.131-52.173 0-31.215 16.759-56.525 37.99-77.21-16.043 0-31.522-0.393-48.384-0.393-155.017 0-274.244-98.867-274.244-201.233 0-100.898 130.731-164.045 285.73-164.045 176.64 0 274.244 100.403 274.244 201.216 0 80.93-23.859 129.399-97.621 181.623-25.207 17.852-73.438 61.355-73.438 86.869 0 29.969 8.533 44.715 53.572 79.94 46.165 36.096 78.814 85.009 78.814 144.026 0 70.263-31.266 143.292-89.993 159.573h88.508l62.447 48.794zM493.312 215.706c2.219-9.438 3.413-18.995 3.413-28.894 0-81.425-52.48-145.203-203.025-145.203-107.127 0-184.508 67.908-184.508 149.402 0 79.923 95.966 146.432 203.093 145.289 24.986-0.324 48.282-4.284 69.444-11.162 58.129-40.516 99.84-63.386 111.582-109.431zM321.86 519.748c-71.936 2.15-140.254 80.521-152.678 175.002-12.373 94.498 35.823 166.844 107.708 164.71 71.885-2.15 140.254-77.961 152.61-172.493 12.425-94.498-35.806-169.37-107.639-167.219z" />
<glyph unicode="&#xe93c;" glyph-name="instagram" d="M816.435 447.983c0-167.68-136.329-303.616-304.435-303.616-168.158 0-304.418 135.936-304.418 303.616 0 20.019 2.031 39.543 5.666 58.385h-204.715v-403.661c0-86.63 70.4-156.894 157.338-156.894h692.258c86.818 0 157.338 70.263 157.338 156.894v403.661h-204.766c3.703-18.842 5.734-38.366 5.734-58.385zM858.129 950.204h-692.258c-86.938 0-157.338-70.263-157.338-156.928v-170.086h254.857c55.125 77.687 145.869 128.495 248.61 128.495 102.673 0 193.434-50.825 248.525-128.495h254.942v170.086c0 86.665-70.519 156.928-157.338 156.928zM955.204 748.937c0-19.456-15.974-35.362-35.499-35.362h-106.496c-19.507 0-35.533 15.906-35.533 35.362v106.257c0 19.473 16.026 35.43 35.533 35.43h106.496c19.558 0 35.499-15.974 35.499-35.43v-106.257zM699.375 447.983c0 103.253-83.866 186.863-187.375 186.863-103.492 0-187.358-83.61-187.358-186.863 0-103.185 83.866-186.829 187.358-186.829s187.375 83.644 187.375 186.829z" />
<glyph unicode="&#xe93d;" glyph-name="left-arrow" d="M746.274-55.467c8.038 0 16.009 3.072 22.101 9.182 12.203 12.305 12.203 32.205 0 44.476l-446.498 449.792 446.481 449.758c12.203 12.305 12.203 32.205 0 44.493-12.237 12.305-31.966 12.305-44.169 0l-468.548-471.979c-12.203-12.305-12.203-32.222 0-44.527l468.565-471.996c6.093-6.127 14.080-9.199 22.067-9.199z" />
<glyph unicode="&#xe93e;" glyph-name="location" d="M512 951.467c-206.967 0-375.398-162.867-375.398-363.076 0-66.389 18.705-131.311 54.596-188.655l297.353-442.607c5.325-7.868 14.234-12.595 23.723-12.595 9.54 0 18.415 4.779 23.723 12.663l297.506 443.597c35.26 56.542 53.897 121.412 53.897 187.597 0 200.209-168.397 363.076-375.398 363.076zM785.562 432.077l-273.306-402.142-273.118 401.169c-29.645 47.36-51.2 107.725-51.2 163.311 0 168.721 145.374 306.022 324.062 306.022 178.705 0 324.062-137.301 324.062-306.022 0-55.467-21.47-115.763-50.5-162.338zM520.533 763.563c-98.679 0-178.961-76.544-178.961-170.615 0-94.089 80.282-170.598 178.961-170.598 98.748 0 179.012 76.51 179.012 170.598-0.017 94.071-80.282 170.615-179.012 170.615zM520.533 473.702c-70.485 0-127.829 53.641-127.829 119.518s57.327 119.501 127.829 119.501c70.468 0 127.881-53.623 127.881-119.501s-57.412-119.518-127.881-119.518z" />
<glyph unicode="&#xe93f;" glyph-name="logout-back-arrow" d="M512.444-55.467l79.070 79.138-374.647 372.241h798.601v104.175h-798.601l374.647 372.224-79.070 79.155-503.91-503.467 503.91-503.467z" />
<glyph unicode="&#xe940;" glyph-name="mail" d="M993.792 757.077c-0.068 0.017-0.154 0-0.222 0.017-1.399 0.222-2.833 0.427-4.301 0.427h-954.556c-1.143 0-2.236-0.188-3.345-0.341-0.478-0.051-0.973-0.051-1.434-0.137-1.161-0.222-2.27-0.58-3.379-0.939-0.512-0.171-1.058-0.29-1.57-0.478-0.836-0.324-1.587-0.751-2.389-1.178-0.768-0.393-1.57-0.751-2.304-1.229-0.41-0.273-0.768-0.597-1.161-0.887-1.024-0.734-2.031-1.502-2.935-2.406 0 0-0.017-0.017-0.017-0.034-1.075-1.058-2.099-2.15-2.987-3.413-3.14-4.437-4.625-9.506-4.625-14.524 0-0.119-0.034-0.239-0.034-0.358v-567.211c0-14.336 11.725-25.924 26.18-25.924h954.573c14.507 0 26.18 11.588 26.18 25.924v567.211c0 12.783-9.335 23.364-21.675 25.481zM912.265 711.492l-400.35-268.663-400.367 268.663h800.717zM55.108 184.508v502.784l441.941-296.567c4.489-3.004 9.694-4.489 14.882-4.489 5.239 0 10.428 1.485 14.882 4.489l442.146 296.738v-502.972h-913.852z" />
<glyph unicode="&#xe941;" glyph-name="memes" d="M510.293-55.467v0 0c-30.72 0-59.733 3.413-90.453 10.24-174.080 37.547-303.787 182.613-322.56 358.4l-47.787 573.44c-1.707 17.067 5.12 34.133 15.36 46.080 11.947 11.947 27.307 18.773 46.080 18.773h8.533l8.533-3.413c13.653-6.827 40.96-18.773 88.747-29.013 78.507-17.067 184.32-27.307 295.253-27.307h3.413c191.147 0 329.387 27.307 380.587 54.613l13.653 3.413h3.413c3.413 0 8.533 0 11.947-1.707 11.947-3.413 23.893-8.533 32.427-18.773 11.947-11.947 17.067-29.013 15.36-46.080l-49.493-571.733c-20.48-208.213-197.973-366.933-413.013-366.933zM117.76 878.080l47.787-558.080c15.36-146.773 122.88-267.947 269.653-300.373 23.893-5.12 49.493-8.533 75.093-8.533v0c179.2 0 327.68 133.12 344.747 307.2l49.493 558.080c-80.213-32.427-225.28-51.2-389.12-51.2h-3.413c-116.053 0-226.987 10.24-310.613 29.013-32.427 6.827-59.733 15.36-83.627 23.893zM510.293 116.907c-100.693 0-187.733 69.973-208.213 167.253-3.413 13.653 0 25.6 8.533 35.84s20.48 15.36 34.133 15.36h329.387c13.653 0 25.6-6.827 34.133-17.067s11.947-22.187 8.533-35.84c-18.773-95.573-105.813-165.547-206.507-165.547zM378.88 268.8c22.187-51.2 75.093-85.333 133.12-85.333s109.227 34.133 133.12 85.333h-266.24zM660.48 471.893c-54.613 0-93.867 23.893-102.4 61.44-10.24 47.787 35.84 93.867 105.813 107.52 13.653 3.413 25.6 3.413 39.253 3.413 54.613 0 93.867-23.893 102.4-61.44 3.413-17.067 0-35.84-10.24-52.907-17.067-27.307-52.907-47.787-93.867-56.32-15.36 0-29.013-1.707-40.96-1.707zM703.147 579.413c-8.533 0-17.067-1.707-25.6-3.413-34.133-6.827-52.907-23.893-52.907-30.72 1.707 0 13.653-6.827 35.84-6.827 8.533 0 17.067 1.707 25.6 3.413 34.133 6.827 52.907 23.893 52.907 30.72-1.707 0-13.653 6.827-35.84 6.827zM363.52 473.6c-13.653 0-27.307 1.707-39.253 5.12-69.973 15.36-116.053 61.44-105.813 109.227 8.533 37.547 47.787 61.44 100.693 61.44 13.653 0 27.307-1.707 39.253-5.12 29.013-6.827 56.32-18.773 75.093-35.84 23.893-20.48 34.133-47.787 29.013-73.387-5.12-37.547-46.080-61.44-98.987-61.44zM319.147 579.413c-22.187 0-34.133-6.827-35.84-8.533 1.707-3.413 18.773-20.48 52.907-29.013 8.533-1.707 17.067-3.413 25.6-3.413 22.187 0 34.133 6.827 35.84 8.533-1.707 3.413-18.773 20.48-52.907 29.013-8.533 3.413-17.067 3.413-25.6 3.413z" />
<glyph unicode="&#xe942;" glyph-name="options-tick-mark-01" d="M375.467-2.56c-25.6 0-51.2 10.24-69.973 30.72l-267.947 276.48c-39.253 40.96-39.253 105.813 0 145.067 39.253 40.96 102.4 40.96 141.653 0l189.44-194.56 469.333 604.16c34.133 44.373 97.28 51.2 139.947 15.36s49.493-100.693 15.36-145.067l-539.307-692.907c-17.067-22.187-44.373-37.547-71.68-39.253-3.413 0-5.12 0-6.827 0z" />
<glyph unicode="&#xe943;" glyph-name="personality-test" d="M534.187 260.267v30.72c0 35.84 6.827 64.853 20.48 85.333s42.667 47.787 83.627 80.213c49.493 37.547 83.627 68.267 102.4 92.16 20.48 23.893 34.133 47.787 44.373 75.093 10.24 25.6 15.36 56.32 15.36 88.747 0 75.093-25.6 133.12-76.8 175.787s-121.173 63.147-208.213 63.147c-104.107 0-201.387-25.6-291.84-75.093l56.32-117.76c34.133 17.067 69.973 30.72 105.813 42.667s75.093 18.773 117.76 18.773c46.080 0 83.627-10.24 107.52-30.72 25.6-20.48 37.547-47.787 37.547-85.333 0-32.427-8.533-59.733-23.893-81.92-15.36-23.893-49.493-56.32-102.4-97.28-44.373-34.133-75.093-68.267-93.867-100.693-17.067-32.427-27.307-73.387-27.307-121.173v-42.667h133.12zM401.067-28.16c17.067-18.773 40.96-27.307 73.387-27.307s56.32 8.533 73.387 27.307c17.067 18.773 25.6 42.667 25.6 75.093s-8.533 56.32-25.6 75.093c-17.067 17.067-40.96 25.6-73.387 25.6-64.853 0-98.987-34.133-98.987-100.693 0-32.427 8.533-58.027 25.6-75.093z" />
<glyph unicode="&#xe944;" glyph-name="profile2" d="M512 367.872c-298.581 0-449.963-124.16-449.963-369.203 0-29.815 23.552-54.135 52.531-54.135s52.531 24.32 52.531 54.135c0 121.532 39.236 265.933 344.9 265.933 305.715 0 344.917-144.401 344.917-265.933 0-29.815 23.586-54.135 52.565-54.135 28.911 0 52.48 24.32 52.48 54.135 0 244.992-151.381 369.203-449.963 369.203zM511.59 421.547c127.215 0 238.797 133.086 238.797 284.877 0 141.978-100.454 245.026-238.797 245.026-138.394 0-238.797-103.049-238.797-245.026-0.017-151.791 111.565-284.877 238.797-284.877zM511.59 844.698c77.858 0 132.181-57.327 132.181-139.383 0-93.508-62.942-178.603-132.181-178.603-69.154 0-132.13 85.111-132.13 178.603-0.017 82.057 54.34 139.383 132.13 139.383z" />
<glyph unicode="&#xe945;" glyph-name="quiz" d="M541.013 664.747c-105.813 18.773-213.333-29.013-269.653-121.173-34.133-56.32-49.493-116.053-35.84-180.907 11.947-56.32 42.667-102.4 81.92-143.36 20.48-22.187 32.427-49.493 32.427-80.213 0-39.253 0-76.8 0-116.053 0-46.080 34.133-78.507 80.213-78.507 22.187 0 44.373 0 66.56 0s42.667 0 64.853 0c49.493 0 81.92 32.427 81.92 81.92 0 37.547 0 76.8 0 114.347 0 29.013 10.24 54.613 30.72 76.8 22.187 23.893 40.96 51.2 58.027 78.507 27.307 51.2 37.547 104.107 25.6 160.427-25.6 107.52-109.227 189.44-216.747 208.213zM558.080-4.267c-40.96 0-81.92 0-124.587 0-25.6 0-35.84 11.947-30.72 39.253h187.733c3.413-27.307-6.827-39.253-32.427-39.253zM402.773 86.187v37.547h187.733v-37.547h-187.733zM684.373 321.707c-13.653-22.187-29.013-44.373-47.787-64.853-18.773-22.187-32.427-44.373-40.96-71.68-1.707-6.827-5.12-8.533-11.947-8.533-30.72 0-59.733 0-90.453 0v0c-29.013 0-58.027 0-88.747 0-6.827 0-10.24 1.707-13.653 8.533-6.827 27.307-22.187 51.2-40.96 71.68-29.013 32.427-54.613 68.267-64.853 110.933-15.36 59.733 0 116.053 37.547 163.84 56.32 71.68 131.413 98.987 220.16 80.213 83.627-18.773 146.773-88.747 162.133-172.373 8.533-42.667 1.707-81.92-20.48-117.76zM315.733 676.693c13.653 13.653 13.653 35.84 0 51.2-30.72 30.72-61.44 61.44-92.16 92.16-6.827 5.12-15.36 8.533-20.48 10.24-20.48 0-32.427-6.827-37.547-22.187-6.827-15.36-3.413-29.013 6.827-39.253 30.72-30.72 61.44-61.44 92.16-92.16 15.36-13.653 37.547-13.653 51.2 0zM505.173 748.373c20.48 0 35.84 15.36 35.84 37.547 0 42.667 0 85.333 0 129.707 0 20.48-15.36 35.84-35.84 35.84s-35.84-15.36-35.84-37.547c0-22.187 0-42.667 0-64.853s0-42.667 0-64.853c0-18.773 15.36-35.84 35.84-35.84zM837.973 828.587c-15.36 6.827-29.013 3.413-39.253-8.533-30.72-30.72-61.44-61.44-90.453-90.453-15.36-15.36-15.36-37.547-1.707-51.2 13.653-15.36 35.84-15.36 51.2 0 30.72 30.72 61.44 59.733 90.453 92.16 6.827 6.827 8.533 15.36 13.653 23.893-3.413 15.36-10.24 27.307-23.893 34.133z" />
<glyph unicode="&#xe946;" glyph-name="right-arrow2" d="M792.542 448c0-15.155-5.769-30.345-17.306-41.899l-442.948-444.211c-23.040-23.125-60.45-23.125-83.524 0-23.074 23.074-23.074 60.621 0 83.746l401.22 402.364-401.22 402.381c-23.074 23.108-23.074 60.638 0 83.746 23.074 23.125 60.484 23.125 83.524 0l442.965-444.245c11.537-11.571 17.289-26.726 17.289-41.882z" />
<glyph unicode="&#xe947;" glyph-name="right-arrow" d="M277.709-55.467c-7.987 0-15.974 3.072-22.067 9.182-12.203 12.305-12.203 32.205 0 44.476l446.464 449.775-446.464 449.775c-12.203 12.305-12.203 32.205 0 44.493 12.203 12.305 31.966 12.305 44.169 0l468.565-471.996c12.203-12.305 12.203-32.222 0-44.51l-468.565-472.013c-6.11-6.11-14.080-9.182-22.101-9.182z" />
<glyph unicode="&#xe948;" glyph-name="search2" d="M818.108 168.994c89.173 82.432 145.033 200.329 145.033 331.315 0 249.19-201.967 451.157-451.14 451.157-249.156 0-451.14-201.967-451.14-451.157 0-249.122 201.984-451.106 451.14-451.106 80.469 0 155.972 21.163 221.372 58.078l139.503-148.224c19.866-19.763 52.497-19.371 72.892 1.058 20.412 20.361 20.924 53.026 1.058 72.892l-128.717 135.987zM511.164 155.887c-189.747 0-343.569 154.59-343.569 345.225 0 190.618 153.822 345.19 343.569 345.19 189.764 0 343.569-154.573 343.569-345.19 0-190.652-153.805-345.225-343.569-345.225z" />
<glyph unicode="&#xe949;" glyph-name="share" d="M997.154 626.227l-189.252-191.095c-24.388-24.627-63.898-24.627-88.286 0-24.388 24.61-24.388 64.478 0 89.19l78.49 79.138c-64.393 2.85-320.358-5.035-415.625-273.067-9.097-25.668-33.365-41.762-59.221-41.762-7.014 0-14.131 1.092-21.077 3.55-32.751 11.691-49.835 47.616-38.229 80.384 107.093 301.5 385.86 369.442 540.723 357.291l-84.514 83.029c-24.405 24.61-24.405 64.478 0 89.122 24.337 24.644 63.898 24.644 88.235 0l188.757-186.658c11.742-11.793 18.313-27.836 18.313-44.578 0-16.708-6.571-32.751-18.313-44.544zM134.366 730.487v-566.221c0-34.782 28.143-62.942 62.925-62.942h629.18c34.765 0 62.942 28.126 62.942 62.942v188.774h125.833v-251.699c0-69.513-56.337-125.833-125.833-125.833h-755.046c-69.495 0-125.833 56.32-125.833 125.833v692.105c0 69.461 56.337 125.833 125.833 125.833h314.59v-125.833h-251.665c-34.782 0-62.925-28.177-62.925-62.959z" />
<glyph unicode="&#xe94a;" glyph-name="special" d="M224.717-24.474c-13.21 0-26.095 6.758-33.331 18.961-10.923 18.364-4.881 42.138 13.517 53.060l287.3 170.564c12.186 7.236 27.341 7.236 39.561 0l208.469-123.836-55.313 231.799c-3.379 14.165 1.451 29.065 12.646 38.502l182.75 154.88-241.391 19.951c-14.353 1.178-26.795 10.138-32.427 23.313l-94.549 220.672-94.618-220.672c-5.649-13.175-18.125-22.135-32.393-23.313l-241.323-19.934 182.716-154.88c16.316-13.841 18.33-38.263 4.506-54.562-13.841-16.333-38.298-18.364-54.579-4.54l-254.037 215.347c-11.964 10.138-16.623 26.487-11.844 41.37 4.796 14.95 18.091 25.481 33.69 26.778l311.279 25.719 121.037 282.3c6.11 14.234 20.105 23.467 35.584 23.467v0c15.497 0 29.508-9.25 35.601-23.467l120.951-282.283 311.398-25.719c15.616-1.297 28.911-11.827 33.707-26.778 4.779-14.882 0.068-31.232-11.844-41.37l-235.998-199.953 71.031-297.66c3.567-15.138-2.167-30.925-14.694-40.192-12.578-9.165-29.406-9.967-42.786-2.065l-267.349 158.839-267.537-158.839c-6.195-3.721-13.005-5.461-19.729-5.461z" />
<glyph unicode="&#xe94b;" glyph-name="telephone" d="M992.905 159.095l-155.511 153.702c-30.993 30.498-82.261 29.542-114.33-2.133l-78.353-77.397c-4.932 2.697-10.052 5.495-15.445 8.482-49.459 27.085-117.18 64.222-188.45 134.741-71.441 70.622-109.056 137.66-136.55 186.573-2.884 5.188-5.683 10.206-8.414 14.933l52.599 51.883 25.822 25.583c32.102 31.744 33.007 82.432 2.082 113.015l-155.494 153.754c-30.908 30.532-82.21 29.594-114.313-2.133l-43.861-43.588 1.212-1.161c-14.694-18.534-26.982-39.902-36.113-62.959-8.414-21.965-13.687-42.889-16.077-63.881-20.531-168.243 57.242-322.031 268.356-530.705 291.806-288.427 526.967-266.615 537.122-265.574 22.101 2.594 43.247 7.817 64.785 16.111 23.142 8.909 44.766 21.009 63.505 35.516l0.956-0.853 44.407 42.974c32.034 31.795 32.922 82.466 2.065 113.118zM956.228 80.179l-19.541-19.302-7.782-7.407c-12.288-11.725-33.519-28.211-64.529-40.175-17.647-6.741-34.97-11.042-52.651-13.107-2.236-0.188-223.42-18.859-497.135 251.733-232.789 230.059-270.080 362.615-254.43 491.025 1.946 17.033 6.281 34.133 13.158 52.053 12.254 30.839 28.911 51.797 40.67 63.966l27.051 27.017c13.039 12.919 33.382 13.892 45.295 2.116l155.494-153.702c11.913-11.793 10.957-31.898-2.116-44.834l-104.994-103.714 9.677-16.094c5.376-8.994 11.093-19.063 17.169-30.003 28.877-51.507 68.403-122.027 144.742-197.376 76.134-75.264 147.337-114.295 199.27-142.797 11.179-6.11 21.487-11.759 30.686-17.22l16.316-9.591 104.943 103.817c13.090 12.851 33.485 13.807 45.431 2.082l155.392-153.702c11.947-11.776 10.991-31.829-2.116-44.783z" />
<glyph unicode="&#xe94c;" glyph-name="time" d="M512 951.467c-278.033 0-503.467-225.434-503.467-503.467s225.434-503.467 503.467-503.467 503.467 225.434 503.467 503.467-225.434 503.467-503.467 503.467zM512 70.4c-208.213 0-377.6 169.387-377.6 377.6s169.387 377.566 377.6 377.566 377.6-169.353 377.6-377.566-169.387-377.6-377.6-377.6zM638.481 448h-95.010c-17.391 0-31.471 14.080-31.471 31.471v95.010c0 34.441-27.904 62.31-62.31 62.31h-1.229c-34.423 0-62.31-27.87-62.31-62.31v-190.089c0-34.389 27.904-62.259 62.31-62.259h190.037c34.441 0 62.293 27.904 62.293 62.259v1.314c0 34.423-27.887 62.293-62.31 62.293z" />
<glyph unicode="&#xe94d;" glyph-name="twitter" d="M1015.467 758.835c-37.018-16.35-76.885-27.375-118.647-32.375 42.65 25.446 75.418 65.741 90.778 113.749-39.936-23.552-84.087-40.653-131.191-49.869-37.666 39.987-91.358 64.905-150.801 64.905-114.091 0-206.575-91.989-206.575-205.619 0-16.094 1.843-31.761 5.359-46.814-171.674 8.533-323.874 90.419-425.745 214.818-17.783-30.379-27.955-65.724-27.955-103.39 0-71.339 36.489-134.281 91.87-171.145-33.877 1.092-65.724 10.308-93.542 25.754 0-0.853 0-1.724 0-2.577 0-99.652 71.185-182.716 165.7-201.643-17.34-4.676-35.567-7.202-54.409-7.202-13.295 0-26.283 1.297-38.878 3.686 26.283-81.63 102.622-141.124 192.99-142.729-70.707-55.177-159.778-88.064-256.597-88.064-16.64 0-33.126 0.939-49.289 2.85 91.392-58.334 199.987-92.365 316.689-92.365 379.989 0 587.759 313.327 587.759 585.028 0 8.926-0.222 17.749-0.597 26.556 40.38 28.996 75.418 65.212 103.083 106.445v0z" />
<glyph unicode="&#xe94e;" glyph-name="twittter" d="M1015.467 766.532c-37.035-16.759-76.851-28.075-118.613-33.178 42.633 26.061 75.383 67.396 90.812 116.617-39.919-24.149-84.139-41.711-131.174-51.166-37.7 40.943-91.409 66.577-150.835 66.577-114.091 0-206.575-94.362-206.575-210.773 0-16.486 1.792-32.614 5.325-48.009-171.674 8.806-323.891 92.689-425.779 220.211-17.783-31.147-28.006-67.328-28.006-105.984 0-73.114 36.506-137.591 91.921-175.411-33.843 1.109-65.724 10.615-93.542 26.368-0.034-0.87-0.034-1.741-0.034-2.628 0-102.076 71.219-187.29 165.717-206.609-17.323-4.83-35.601-7.424-54.409-7.424-13.329 0-26.266 1.331-38.878 3.772 26.3-83.678 102.605-144.64 193.007-146.313-70.724-56.525-159.795-90.197-256.58-90.197-16.674 0-33.126 0.99-49.271 2.935 91.409-59.767 200.021-94.669 316.655-94.669 379.989 0 587.793 321.075 587.793 599.569 0 9.097-0.171 18.21-0.597 27.238 40.346 29.713 75.366 66.816 103.066 109.073z" />
<glyph unicode="&#xe94f;" glyph-name="views" d="M513.092 615.68c-93.099 0.444-168.994-74.359-169.284-166.844-0.273-92.382 74.564-167.97 166.656-168.465 92.996-0.461 169.028 74.428 169.318 166.895 0.324 92.279-74.598 167.97-166.69 168.414zM511.642 364.442c-45.705 0.034-83.524 37.598-83.558 82.91-0.034 47.019 37.683 84.497 84.838 84.275 45.346-0.205 82.773-38.127 82.671-83.797-0.051-45.961-37.854-83.49-83.951-83.388zM1008.725 469.111c-25.276 37.325-48.128 76.954-77.090 111.019-110.609 130.219-249.924 199.39-430.063 203.537-19.302-2.133-50.381-3.789-80.845-9.25-122.778-21.999-225.758-82.637-311.706-175.275-34.85-37.581-64.58-79.189-89.839-124.126-1.314-1.997-2.628-3.977-3.959-5.905-8.414-12.459-8.926-26.266-1.536-39.543 71.168-127.932 170.035-227.328 304.896-279.074h-0.017c121.566-50.569 251.068-51.558 387.908 0.922 134.827 51.678 232.567 150.221 303.735 278.153 7.458 13.278 6.929 27.085-1.485 39.543zM932.813 440.115c-30.31-49.357-66.014-94.089-109.653-131.277-129.399-110.421-275.302-147.951-438.409-102.332-70.946 19.866-134.383 56.201-188.843 105.557-0.99 0.87-1.963 1.775-2.953 2.645-5.444 5.035-10.837 10.189-16.094 15.428-0.017 0-0.034 0-0.051 0.102-1.724 1.638-3.43 3.43-5.12 5.171-0.666 0.631-1.297 1.331-1.946 1.997l-3.618 3.823c-1.877 2.014-3.755 4.011-5.615 6.042h-0.068c-25.344 27.87-48.384 58.931-69.239 92.843-2.116 3.447-3.413 6.315-2.85 9.677 31.334 52.77 69.103 100.062 115.49 139.469 120.559 102.434 257.519 142.063 410.795 106.906 139.537-32.017 242.534-118.613 319.078-241.493 3.601-5.786 2.133-9.557-0.905-14.558z" />
</font>
</defs>
</svg>
